[ Сегодня идет свободное скачивание без начисления Download ]


Статистика раздачи
Нет
 
   
 
Top  
 
 
-Мы такие, какие есть / We Are What We Are (2013) BDRip-«Кровь - самая сильная связь»- Год выпуска: 2013
Производство: 01:45:09
Жанр: Триллер, Ужасы, Драма
Перевод: Любительский (двухголосый закадровый) - (den904 & DeadSno)
Озвучка / Автор перевода: den904, DeadSno - Перевод: kon2011
Субтитры: Отдельным файлом
Язык субтитров: Русский, Английский
Дата мировой премьеры: 18 января 2013
Режиссер: Джим Микл
Продюсер: Родриго Бельотт, Эндрю Коркин, Николас Шумакер
Актеры: Кэсси ДеПайва, Лорен Рейто, Джулия Гарнер, Эмбир Чилдерс, Джек Гор, Билл Сейдж, Келли МакГиллис, Уайатт Расселл, Майкл Паркс, Аннемари Лоулесс
Описание фильма:
Казалось бы, обычная и доброжелательная семья Паркеров, всегда державшаяся особняком от остальных жителей городка, не могла бы привлечь к себе особого внимания, однако, в тихом омуте черти водятся. За закрытыми дверями, вспыльчивый глава семейства Фрэнк правит балом и хранит семейные секреты от посторонних глаз. Секреты, которые заставят содрогнуться от ужаса любого, кто прикоснется к ним..

Продолжительность: 01:45:09
Качество видео: BDRip
Видеокодек: Xvid
Битрейт видео: ~1880 kbps
Размер кадра: 720x304
Audio #1: 48 kHz, AC3 Dolby Digital, 3/2 (L,C,R,l,r) + LFE ch, ~448 kbps - Любительский (двухголосый закадровый) den904, DeadSno
Audio #2: 48 kHz, AC3 Dolby Digital, 3/2 (L,C,R,l,r) + LFE ch, ~448 kbps - Оригинал (Английский)
Сэмпл: Скачать
&

MI

Общее
Полное имя : D:\Рипы\We.Are.What.We.Are.2013.BDRip\We Are What We Are.2013.BDRip..avi
Формат : AVI
Формат/Информация : Audio Video Interleave
Профиль формата : OpenDML
Размер файла : 2,05 Гбайт
Продолжительность : 1 ч. 45 м.
Общий поток : 2794 Кбит/сек
Название фильма : We Are What We Are.2013.BDRip.
Режиссёр : rip by maygli
Программа кодирования : VirtualDubModRus 1.5.10.2 (build 2542/release)
Правообладатель : ... (RG Rulya74)
Видео
Идентификатор : 0
Формат : MPEG-4 Visual
Профиль формата : Advanced Simple@L5
Параметр BVOP формата : 1
Параметр QPel формата : Нет
Параметр GMC формата : Без точки перехода
Параметр матрицы формата : Выборочная
Идентификатор кодека : XVID
Идентификатор кодека/Подсказка : XviD
Продолжительность : 1 ч. 45 м.
Битрейт : 1880 Кбит/сек
Ширина : 720 пикселей
Высота : 304 пикселя
Соотношение сторон : 2,35:1
Частота кадров : 23,976 кадра/сек
Цветовое пространство : YUV
Субдискретизация насыщенности : 4:2:0
Битовая глубина : 8 бит
Тип развёртки : Прогрессивная
Метод сжатия : С потерями
Бит/(Пиксели*Кадры) : 0.358
Размер потока : 1,38 Гбайт (67%)
Библиотека кодирования : XviD 65
Аудио #1
Идентификатор : 1
Формат : AC-3
Формат/Информация : Audio Coding 3
Расширение режима : CM (complete main)
Параметр Endianness формата : Big
Идентификатор кодека : 2000
Продолжительность : 1 ч. 45 м.
Вид битрейта : Постоянный
Битрейт : 448 Кбит/сек
Каналы : 6 каналов
Расположение каналов : Front: L C R, Side: L R, LFE
Частота : 48,0 КГц
Битовая глубина : 16 бит
Метод сжатия : С потерями
Размер потока : 337 Мбайт (16%)
Выравнивание : Разделение по промежуткам
Продолжительность промежутка : 42 мс. (1,00 видеокадр)
Время предзагрузки промежутка : 500 мс.
Заголовок : Любительский (двухголосый закадровый) den904, DeadSno
Аудио #2
Идентификатор : 2
Формат : AC-3
Формат/Информация : Audio Coding 3
Расширение режима : CM (complete main)
Параметр Endianness формата : Big
Идентификатор кодека : 2000
Продолжительность : 1 ч. 45 м.
Вид битрейта : Постоянный
Битрейт : 448 Кбит/сек
Каналы : 6 каналов
Расположение каналов : Front: L C R, Side: L R, LFE
Частота : 48,0 КГц
Битовая глубина : 16 бит
Метод сжатия : С потерями
Размер потока : 337 Мбайт (16%)
Выравнивание : Разделение по промежуткам
Продолжительность промежутка : 42 мс. (1,00 видеокадр)
Время предзагрузки промежутка : 500 мс.
Заголовок : Оригинал (Английский)
Скриншоты:

Время раздачи: с 10:00 до 22:30

[Цитировать]



Показать сообщения:    

Текущее время: 10-Дек 02:14

Часовой пояс: UTC + 3


Вы не можете начинать темы
Вы не можете отвечать на сообщения
Вы не можете редактировать свои сообщения
Вы не можете удалять свои сообщения
Вы не можете голосовать в опросах
Вы не можете прикреплять файлы к сообщениям
Вы не можете скачивать файлы

!ВНИМАНИЕ!
Сайт не предоставляет электронные версии произведений, а занимается лишь коллекционированием и каталогизацией ссылок, присылаемых и публикуемых на форуме нашими читателями. Если вы являетесь правообладателем какого-либо представленного материала и не желаете, чтобы ссылка на него находилась в нашем каталоге, свяжитесь с нами, и мы незамедлительно удалим ее. Файлы для обмена на трекере предоставлены пользователями сайта, и администрация не несет ответственности за их содержание. Просьба не заливать файлы, защищенные авторскими правами, а также файлы нелегального содержания!