[ Сегодня идет свободное скачивание без начисления Download ]


Статистика раздачи
Нет
 
   
 
Top  
 
 
-Повелитель лавин / Prince Avalanche (2013) HDRip- Год выпуска: 2013
Производство: США, Bear Media, The, Dogfish Pictures, Dreambridge Films, Lankn Partners, Muskat Filmed Properties LLC
Жанр: Драма, Комедия
Перевод: Многоголосый закадровый, профессиональный (Ozz)
Субтитры: Отсутствуют
Дата мировой премьеры: 20 января 2013
Режиссер: Дэвид Гордон Грин
Продюсер: Джеймс Белфер, Дэвид Гордон Грин, Лиза Мускат
Актеры: Пол Радд, Эмиль Хирш, Лэнс ЛеГолт, Джойс Пэйн, Джина Гранде, Линн Шелтон, Ларри Кречмар, Энок Мун, Дэвид Л. Осборн мл., Дэнни Уолкотт
Описание фильма:
Элвин и Лэнс проводят лето 1988 года в пустынном, выжженном пожарами лесу, занимаясь монотонной работой, перекрашивая знаки на бесконечной проселочной дороге. Лэнсу нелегко в этой глуши прожить без вечеринок и девочек, в отличие от более серьезного Элвина, который пишет страстные письма своей девушке, старшей сестре Лэнса. На протяжении этого долгого лета они встречают только одного человека — таинственного водителя грузовика, который щедро угощает их домашней выпивкой, а затем исчезает так же внезапно, как и появился.

Продолжительность: 01:33:22
Качество видео: HDRip
Видеокодек: Xvid
Битрейт видео: ~1656 Kbit/s
Размер кадра: 720 x 304
Аудио #1: MP3, 48,0 КHz, 2.0, 192 Kbit/s - Русский
Aудио #2: AC3, 48,0 КHz, 5.1, 256 Kbit/s - Aнглийский

MediaInfo

Общее
Полное имя : D:\Торренты\ФИЛЬМЫ торента\Повелитель лавин.2013.HDRip.avi
Формат : AVI
Формат/Информация : Audio Video Interleave
Размер файла : 1,38 Гбайт
Продолжительность : 1 ч. 33 м.
Общий поток : 2118 Кбит/сек
Программа кодирования : VirtualDubMod 1.5.10.2 (build 2540/release)
Библиотека кодирования : VirtualDubMod build 2540/release
Видео
Идентификатор : 0
Формат : MPEG-4 Visual
Профиль формата : Advanced [email protected]
Параметр BVOP формата : 2
Параметр QPel формата : Нет
Параметр GMC формата : Без точки перехода
Параметр матрицы формата : Default (H.263)
Режим смешивания : Сжатый битовый поток
Идентификатор кодека : XVID
Идентификатор кодека/Подсказка : XviD
Продолжительность : 1 ч. 33 м.
Битрейт : 1656 Кбит/сек
Ширина : 720 пикс.
Высота : 304 пикс.
Соотношение сторон : 2,35:1
Частота кадров : 23,976 кадр/сек
Цветовое пространство : YUV
Подвыборка цветности : 4:2:0
Битовая глубина : 8 бит
Тип развёртки : Прогрессивная
Метод сжатия : С потерями
Бит/(Пиксели*Кадры) : 0.315
Размер потока : 1,08 Гбайт (78%)
Библиотека кодирования : XviD 64
Аудио #1
Идентификатор : 1
Формат : MPEG Audio
Версия формата : Version 1
Профиль формата : Layer 3
Режим : Joint stereo
Идентификатор кодека : 55
Идентификатор кодека/Подсказка : MP3
Продолжительность : 1 ч. 33 м.
Вид битрейта : Постоянный
Битрейт : 192 Кбит/сек
Каналы : 2 канала
Частота : 44,1 КГц
Метод сжатия : С потерями
Размер потока : 128 Мбайт (9%)
Выравнивание : Разделение по промежуткам
Продолжительность промежутка : 42 мс. (1,00 видеокадр)
Время предзагрузки промежутка : 500 ms
Библиотека кодирования : LAME3.90.3
Аудио #2
Идентификатор : 2
Формат : AC-3
Формат/Информация : Audio Coding 3
Расширение режима : CM (complete main)
Идентификатор кодека : 2000
Продолжительность : 1 ч. 33 м.
Вид битрейта : Постоянный
Битрейт : 256 Кбит/сек
Каналы : 6 каналов
Расположение каналов : Front: L C R, Side: L R, LFE
Частота : 48,0 КГц
Битовая глубина : 16 бит
Метод сжатия : С потерями
Размер потока : 171 Мбайт (12%)
Выравнивание : Разделение по промежуткам
Продолжительность промежутка : 42 мс. (1,00 видеокадр)
Время предзагрузки промежутка : 500 ms
Скриншоты:

[Цитировать]



Показать сообщения:    

Текущее время: 04-Дек 15:18

Часовой пояс: UTC + 3


Вы не можете начинать темы
Вы не можете отвечать на сообщения
Вы не можете редактировать свои сообщения
Вы не можете удалять свои сообщения
Вы не можете голосовать в опросах
Вы не можете прикреплять файлы к сообщениям
Вы не можете скачивать файлы

!ВНИМАНИЕ!
Сайт не предоставляет электронные версии произведений, а занимается лишь коллекционированием и каталогизацией ссылок, присылаемых и публикуемых на форуме нашими читателями. Если вы являетесь правообладателем какого-либо представленного материала и не желаете, чтобы ссылка на него находилась в нашем каталоге, свяжитесь с нами, и мы незамедлительно удалим ее. Файлы для обмена на трекере предоставлены пользователями сайта, и администрация не несет ответственности за их содержание. Просьба не заливать файлы, защищенные авторскими правами, а также файлы нелегального содержания!