[ Сегодня идет свободное скачивание без начисления Download ]


Статистика раздачи
Нет
 
   
 
Top  
 
 
-Турбо / Turbo (2013) BDRip [H.264]- Год выпуска: 2013
Производство: США, DreamWorks Animation
Жанр: Мультфильм, Комедия, Приключения, Семейный, Спорт
Дата мировой премьеры: 17 июля 2013
Дата российской премьеры: 18 июля 2013, «Двадцатый Век Фокс СНГ» 3D
Дата выхода DVD релиза: 21 ноября 2013, «Двадцатый Век Фокс СНГ»
Описание:Ничто так не раздражает темпераментную, мечтающую о скорости улитку с говорящим именем Турбо, как неспешная жизнь, медленные разговоры, заторможенные соседи. Пусть наш герой выглядит большим чудаком в этом вялом, неторопливом мире, пусть он идёт вопреки закону природы о «рождённом ползать», но если в сердце горит «пламенный мотор», а душа верит в чудо, оно просто не имеет право не произойти!
Режиссер: Дэвид Сорен
Продюсер: Лиза Стюарт, Сьюзэн Слэгли Роджерс
Актеры: Тимур Родригез, Саймон, Юлия Морозова, Станислав Концевич, Олег Куликович
Продолжительность: 01:35:40
Качество видео: BDRip-AVC
Перевод: Дублированный (лицензия)
Субтитры: Вшитые отключаемые
Язык субтитров: Русский, Украинский, Английский (полные, SDH)
Навигация по главам: Есть (29)
Видеокодек: MPEG-4 AVC/H.264
Битрейт видео: ~1788 кбит/сек
Размер кадра: 1120x476
Аудиокодек: AC3 5.1
Битрейт аудио: 448 кбит/сек

MediaInfo:

General
Unique ID                      : 178123992979985090139655401707163416184 (0x86016EE5801744AE98A4E95F2D34F678)
Complete name                  : Turbo.2013.D.BDRip-AVC.NNM-CLUB.mkv
Format                         : Matroska
Format version                 : Version 4 / Version 2
File size                      : 1.50 GiB
Duration                       : 1h 35mn
Overall bit rate               : 2 238 Kbps
Movie name                     : Release for NNM-CLUB
Encoded date                   : UTC 2013-10-31 03:41:50
Writing application            : mkvmerge v6.5.0 ('Isn't she lovely') built on Oct 20 2013 12:50:05
Writing library                : libebml v1.3.0 + libmatroska v1.4.1
Attachment                     : Yes
Video
ID                             : 1
Format                         : AVC
Format/Info                    : Advanced Video Codec
Format profile                 : [url=mailto:High@L4.1]High@L4.1[/url]
Format settings, CABAC         : Yes
Format settings, ReFrames      : 12 frames
Codec ID                       : V_MPEG4/ISO/AVC
Duration                       : 1h 35mn
Bit rate                       : 1 788 Kbps
Width                          : 1 120 pixels
Height                         : 476 pixels
Display aspect ratio           : 2.35:1
Frame rate mode                : Constant
Frame rate                     : 23.976 fps
Color space                    : YUV
Chroma subsampling             : 4:2:0
Bit depth                      : 8 bits
Scan type                      : Progressive
Bits/(Pixel*Frame)             : 0.140
Stream size                    : 1.17 GiB (78%)
Title                          : Турбо / Turbo (2013)
Writing library                : x264 core 130 r2273 b3065e6
Encoding settings              : cabac=1 / ref=12 / deblock=1:-3:-3 / analyse=0x3:0x133 / me=umh / subme=10 / psy=1 / psy_rd=1.00:0.10 / mixed_ref=1 / me_range=32 / chroma_me=1 / trellis=2 / 8x8dct=1 / cqm=0 / deadzone=21,11 / fast_pskip=0 / chroma_qp_offset=-3 / threads=4 / lookahead_threads=1 / sliced_threads=0 / nr=0 / decimate=0 / interlaced=0 / bluray_compat=0 / constrained_intra=0 / bframes=11 / b_pyramid=2 / b_adapt=2 / b_bias=0 / direct=3 / weightb=1 / open_gop=0 / weightp=2 / keyint=240 / keyint_min=23 / scenecut=40 / intra_refresh=0 / rc_lookahead=80 / rc=2pass / mbtree=0 / bitrate=1788 / ratetol=2.0 / qcomp=0.70 / qpmin=0 / qpmax=69 / qpstep=4 / cplxblur=20.0 / qblur=0.5 / vbv_maxrate=25000 / vbv_bufsize=30000 / nal_hrd=none / ip_ratio=1.40 / pb_ratio=1.30 / aq=2:1.00
Default                        : Yes
Forced                         : No
Audio
ID                             : 2
Format                         : AC-3
Format/Info                    : Audio Coding 3
Mode extension                 : CM (complete main)
Format settings, Endianness    : Big
Codec ID                       : A_AC3
Duration                       : 1h 35mn
Bit rate mode                  : Constant
Bit rate                       : 448 Kbps
Channel(s)                     : 6 channels
Channel positions              : Front: L C R, Side: L R, LFE
Sampling rate                  : 48.0 KHz
Bit depth                      : 16 bits
Compression mode               : Lossy
Stream size                    : 307 MiB (20%)
Title                          : Дублированный [Лицензия, BD EUR]
Language                       : Russian
Default                        : Yes
Forced                         : Yes
Text #1
ID                             : 3
Format                         : UTF-8
Codec ID                       : S_TEXT/UTF8
Codec ID/Info                  : UTF-8 Plain Text
Title                          : Full
Language                       : Russian
Default                        : No
Forced                         : No
Text #2
ID                             : 4
Format                         : UTF-8
Codec ID                       : S_TEXT/UTF8
Codec ID/Info                  : UTF-8 Plain Text
Title                          : Full
Language                       : Ukrainian
Default                        : No
Forced                         : No
Text #3
ID                             : 5
Format                         : UTF-8
Codec ID                       : S_TEXT/UTF8
Codec ID/Info                  : UTF-8 Plain Text
Title                          : Full
Language                       : English
Default                        : No
Forced                         : No
Text #4
ID                             : 6
Format                         : UTF-8
Codec ID                       : S_TEXT/UTF8
Codec ID/Info                  : UTF-8 Plain Text
Title                          : SDH
Language                       : English
Default                        : No
Forced                         : No
Menu
00:00:00.000                   : en:(01)00:00:00:000
00:03:29.626                   : en:(02)00:03:29:626
00:06:39.857                   : en:(03)00:06:39:857
00:08:34.222                   : en:(04)00:08:34:222
00:10:13.863                   : en:(05)00:10:13:863
00:13:25.095                   : en:(06)00:13:25:095
00:17:15.784                   : en:(07)00:17:15:784
00:21:53.353                   : en:(08)00:21:53:353
00:25:42.707                   : en:(09)00:25:42:707
00:28:24.494                   : en:(10)00:28:24:494
00:30:17.899                   : en:(11)00:30:17:899
00:34:20.892                   : en:(12)00:34:20:892
00:38:20.339                   : en:(13)00:38:20:339
00:40:45.109                   : en:(14)00:40:45:109
00:44:40.219                   : en:(15)00:44:40:219
00:47:40.941                   : en:(16)00:47:40:941
00:49:29.925                   : en:(17)00:49:29:925
00:53:28.955                   : en:(18)00:53:28:955
00:57:00.750                   : en:(19)00:57:00:750
00:59:38.825                   : en:(20)00:59:38:825
01:02:05.972                   : en:(21)01:02:05:972
01:05:50.780                   : en:(22)01:05:50:780
01:08:07.166                   : en:(23)01:08:07:166
01:13:08.801                   : en:(24)01:13:08:801
01:16:26.790                   : en:(25)01:16:26:790
01:19:48.450                   : en:(26)01:19:48:450
01:23:26.126                   : en:(27)01:23:26:126
01:26:29.726                   : en:(28)01:26:29:726
01:35:40.484                   : en:(29)01:35:40:484
-Скриншоты:

[Цитировать]



Показать сообщения:    

Текущее время: 08-Дек 03:11

Часовой пояс: UTC + 3


Вы не можете начинать темы
Вы не можете отвечать на сообщения
Вы не можете редактировать свои сообщения
Вы не можете удалять свои сообщения
Вы не можете голосовать в опросах
Вы не можете прикреплять файлы к сообщениям
Вы не можете скачивать файлы

!ВНИМАНИЕ!
Сайт не предоставляет электронные версии произведений, а занимается лишь коллекционированием и каталогизацией ссылок, присылаемых и публикуемых на форуме нашими читателями. Если вы являетесь правообладателем какого-либо представленного материала и не желаете, чтобы ссылка на него находилась в нашем каталоге, свяжитесь с нами, и мы незамедлительно удалим ее. Файлы для обмена на трекере предоставлены пользователями сайта, и администрация не несет ответственности за их содержание. Просьба не заливать файлы, защищенные авторскими правами, а также файлы нелегального содержания!