[ Сегодня идет свободное скачивание без начисления Download ]


Статистика раздачи
Нет
 
   
 
Top  
 
 
-РЭД 2 / Red 2 (2013) WEB-DLRip- «Отдохнём на том свете»- Год выпуска: 2013
Производство: США, Франция, Канада / Summit Entertainment, Di Bonaventura Pictures, DC Entertainment
Жанр: Боевик, Комедия
Перевод: Дублированный [лицензия]
Субтитры: Отсутствуют
Дата мировой премьеры: 18 июля 2013
Дата российской премьеры: 1 августа 2013, «Централ Партнершип»
Дата выхода DVD релиза: 15 ноября 2013, «CD Land»
Режиссер: Дин Паризо
Продюсер: Лоренцо Ди Бонавентура, Марк Вахрадян, Рафаэль Бенолье
Актеры: Брюс Уиллис, Джон Малкович, Мэри-Луиз Паркер, Кэтрин Зета-Джонс, Ли Бён Хон, Энтони Хопкинс, Хелен Миррен, Йонг Кун Ли, Нил МакДонаф, Дэвид Тьюлис
Описание фильма:
Вышедший на пенсию тайный агент ЦРУ Фрэнк Мозес объединяется с командой старых друзей, элитных оперативников, с целью найти пропавшее оружие массового уничтожения. Чтобы его заполучить, прийдется прорываться сквозь армии безжалостных наемников, террористов и всегда жаждущих власти политиков.
Миссия приводит Фрэнка и его разношерстную команду вышедших на пенсию убийц в Париж, Лондон и Москву. В их арсенале есть только хитрость, старая сноровка и помощь друг друга, чтобы спасти мир и при этом самим остаться в живых.

Продолжительность: 01:55:49
Качество видео: WEB-DLRip
Видеокодек: Xvid
Битрейт видео: ~1405 Kbps 23.98 fps
Размер кадра: 720x304
Аудиокодек: AC3 5.1
Битрейт аудио: 384 Kbps 48000 Hz
Сэмпл: Скачать

MediaInfo:

Общее
Полное имя                               : Red.2.2013.D.WEBDLRip.1400MB.nnm-club.avi
Формат                                   : AVI
Формат/Информация                        : Audio Video Interleave
Размер файла                             : 1,45 Гбайт
Продолжительность                        : 1 ч. 55 м.
Общий поток                              : 1798 Кбит/сек
Программа кодирования                    : VirtualDubMod 1.5.10.2 (build 2540/release)
Библиотека кодирования                   : VirtualDubMod build 2540/release
Видео
Идентификатор                            : 0
Формат                                   : MPEG-4 Visual
Профиль формата                          : Advanced Simple@L5
Параметр BVOP формата                    : 1
Параметр QPel формата                    : Нет
Параметр GMC формата                     : Без точки перехода
Параметр матрицы формата                 : Default (MPEG)
Идентификатор кодека                     : XVID
Идентификатор кодека/Подсказка           : XviD
Продолжительность                        : 1 ч. 55 м.
Битрейт                                  : 1405 Кбит/сек
Ширина                                   : 720 пикселей
Высота                                   : 304 пикселя
Соотношение сторон                       : 2,35:1
Частота кадров                           : 23,976 кадра/сек
Цветовое пространство                    : YUV
Субдискретизация насыщенности            : 4:2:0
Битовая глубина                          : 8 бит
Тип развёртки                            : Прогрессивная
Метод сжатия                             : С потерями
Бит/(Пиксели*Кадры)                      : 0.268
Размер потока                            : 1,14 Гбайт (78%)
Библиотека кодирования                   : XviD 73
Аудио
Идентификатор                            : 1
Формат                                   : AC-3
Формат/Информация                        : Audio Coding 3
Расширение режима                        : CM (complete main)
Параметр Endianness формата              : Big
Идентификатор кодека                     : 2000
Продолжительность                        : 1 ч. 55 м.
Вид битрейта                             : Постоянный
Битрейт                                  : 384 Кбит/сек
Каналы                                   : 6 каналов
Расположение каналов                     : Front: L C R, Side: L R, LFE
Частота                                  : 48,0 КГц
Битовая глубина                          : 16 бит
Метод сжатия                             : С потерями
Размер потока                            : 318 Мбайт (21%)
Выравнивание                             : Разделение по промежуткам
Продолжительность промежутка             : 42  мс. (1,00 видеокадр)
Время предзагрузки промежутка            : 500  мс.
Скриншоты:
Время раздачи: 24/7 (до 10 скачавших)

[Цитировать]



Показать сообщения:    

Текущее время: 09-Дек 04:57

Часовой пояс: UTC + 3


Вы не можете начинать темы
Вы не можете отвечать на сообщения
Вы не можете редактировать свои сообщения
Вы не можете удалять свои сообщения
Вы не можете голосовать в опросах
Вы не можете прикреплять файлы к сообщениям
Вы не можете скачивать файлы

!ВНИМАНИЕ!
Сайт не предоставляет электронные версии произведений, а занимается лишь коллекционированием и каталогизацией ссылок, присылаемых и публикуемых на форуме нашими читателями. Если вы являетесь правообладателем какого-либо представленного материала и не желаете, чтобы ссылка на него находилась в нашем каталоге, свяжитесь с нами, и мы незамедлительно удалим ее. Файлы для обмена на трекере предоставлены пользователями сайта, и администрация не несет ответственности за их содержание. Просьба не заливать файлы, защищенные авторскими правами, а также файлы нелегального содержания!