[ Сегодня идет свободное скачивание без начисления Download ]


Статистика раздачи
Нет
 
   
 
 
 
Vanessa-Mae
Ванесса-Мэй (англ. Vanessa-Mae; кит. ??, Ch?n M?i, род. 27 октября 1978) — всемирно известная скрипачка, композитор. Известна в основном благодаря техно-обработкам классических композиций. Стиль исполнения: «violin techno-acoustic fusion» (техно-акустическое слияние), или эстрадная скрипка.
Китаянка по матери, тайка по отцу. Когда Ванессе было 4 года, её родители развелись и мать забрала её на проживание в Великобританию. После переезда её мать вышла замуж за английского юриста Грэма Николсона (англ. Graham Nicholson).
Заниматься музыкой она начала в возрасте трёх лет, но тогда главным её инструментом было фортепиано. Позже, её отчим заставлял брать её в руки скрипку и аккомпанировать ему.
Первое выступление Ванессы было в возрасте девяти лет. Играла с филармоническим оркестром, когда ей было десять. Ванесса была самым молодым учеником в Королевском музыкальном колледже. В октябре 1991 года Ванесса Мэй записала свой дебютный диск Violin.
В 1992 году она первый раз взяла свою электроскрипку Zeta. В 1994 она записала её первый поп альбом. Рейтинг альбома The Violin Player взлетел во всемирных чартах более чем в 20 странах, сразу же после выхода.
В 1996 как лучшая исполнительница (Best Female Artist) она была номинирована на премию «BRIT Awards». Она — первый музыкант и классический музыкант, который был выдвинут на этот конкурс, и удостоен награды подавляющим числом голосов, благодаря своей популярности.-

1995. The Violin Player

The Violin Player - первый успешный альбом Ванессы Мэй, результат многолетнего труда и успешного сотрудничества Ванессы Мэй и продюсера и музыканта Майка Батта.
Такие композиции, как "Toccata and Fugue in D Minor", "Classical Gas" и "Red Hot" мгновенно стали хитами.
До сего дня это самый успешный альбом Ванессы Мэй, в мире он разошёлся 8 млн. копиями.
Трэклист:
01. Toccata and Fugue in D minor (7:50)
02. Con tradanza (3:52)
03. Classical gas (3:24)
04. Theme from 'Caravans' (5:08)
05. Warm air (3:41)
06. Jazz will eat itself (3:33)
07. Widescreen (4:01)
08. Tequila mockingbird (3:29)
09. City the me (4:35)
10. Red hot (3:19)
11. Classical gas (reggae-version) (3:45)
Продолжительность: 46:37
Формат: FLAC (image + .cue)
Битрейт аудио: lossless
Источник: собственный диск

CUEsheet

REM DATE 1995
PERFORMER "Vanessa-Mae"
TITLE "The violin player"
FILE "CDImage.flac" WAVE
TRACK 01 AUDIO
TITLE "Toccata and Fugue in D minor"
INDEX 01 00:00:00
TRACK 02 AUDIO
TITLE "Con tradanza"
INDEX 00 07:47:45
INDEX 01 07:49:65
TRACK 03 AUDIO
TITLE "Classical gas"
INDEX 00 11:39:62
INDEX 01 11:42:05
TRACK 04 AUDIO
TITLE "Theme from 'Caravans'"
INDEX 00 15:04:07
INDEX 01 15:06:20
TRACK 05 AUDIO
TITLE "Warm air"
INDEX 00 20:12:25
INDEX 01 20:14:55
TRACK 06 AUDIO
TITLE "Jazz will eat itself"
INDEX 00 23:53:57
INDEX 01 23:56:02
TRACK 07 AUDIO
TITLE "Widescreen"
INDEX 00 27:26:50
INDEX 01 27:28:70
TRACK 08 AUDIO
TITLE "Tequila mockingbird"
INDEX 00 31:27:55
INDEX 01 31:29:60
TRACK 09 AUDIO
TITLE "City the me"
INDEX 00 34:56:50
INDEX 01 34:58:60
TRACK 10 AUDIO
TITLE "Red hot"
INDEX 00 39:31:45
INDEX 01 39:33:55
TRACK 11 AUDIO
TITLE "Classical gas (reggae-version)"
INDEX 00 42:51:00
INDEX 01 42:52:37

Отчет EAC

Отчёт EAC об извлечении, выполненном 13. августа 2005, 22:14 для диска:
Vanessa-Mae / The violin player
Дисковод: PLEXTOR CD-R PREMIUM Adapter: 1 ID: 0
Режим чтения: Достоверный (C2: нет, Точный поток: да, Отключение кэша: да)
Коррекция смещения при чтении: 30
Способность читать области Lead-in и Lead-out : Нет
Выходной формат: Внутренние WAV-операции
44.100 Гц; 16 бит; стерео
Другие параметры:
Заполнение пропущенных сэмплов тишиной : Да
Удаление блоков с тишиной в начале и конце : Нет
Установленный внешний ASPI-интерфейс
Характеристики диапазона извлечения и сообщения об ошибках
Выбранный диапазон
Имя файла C:\MUSIC\IMAGE\CDImage.wav
Пиковый уровень 95.4 %
Качество диапазона 100.0 %
CRC 5E502E58
Копирование... OK
Ошибок не произошло
Конец отчёта

1996. The Classical Album 1

Трэклист:
01. Partita No3 in E for solo Violin, I Preludio, J.S.Bach (3:50)
02. Partita No3 in E for solo Violin,II Loure, J.S.Bach (3:15)
03. Partita No3 in E for solo Violin,III Gavotte en Rondeau, J.S.Bach (3:07)
04. Partita No3 in E for solo Violin,IV Menuet I, J.S.Bach (1:17)
05. Partita No3 in E for solo Violin, V Menuet II, J.S.Bach (1:27)
06. Partita No3 in E for solo Violin,VI Bourree, J.S.Bach (1:17)
07. Partita No3 in E for solo Violin,VII Gigue, J.S.Bach (1:37)
08. Scherzo in C Minor for Violin and Piano, J. Brahms (5:30)
09. Romance no2 in F for Violin and Orchestra, L.van Beethoven (8:32)
10. Scottish Fantasy, Introduction Grave, Max Bruch (3:18)
11. Scottish Fantasy, Adagio Cantabile,, Max Bruch (4:06)
12. Scottish Fantasy, Allegro, Max Bruch (5:28)
13. Scottish Fantasy, Adagio,, Max Bruch (1:01)
14. Scottish Fantasy, Andante Sostenuto, Max Bruch (5:33)
15. Scottish Fantasy, Finale, , Max Bruch (7:01)
16. I'm A-Doun For Lack O'Johnnie (A Little Scottish Fantasy) (4:30)
Продолжительность: 1:00:49
Формат: FLAC (image + .cue)
Битрейт аудио: lossless
Источник: - rutracker.org (релизер http://rutracker.org/forum/profile.php?mode=viewprofile&u=155979)

CUEsheet

REM DATE 1996
PERFORMER "Vanessa-Mae"
TITLE "The classical album 1"
FILE "CDImage.flac" WAVE
TRACK 01 AUDIO
TITLE "Partita No3 in E for solo Violin, I Preludio, J.S.Bach"
PERFORMER "Vanessa-Mae"
INDEX 01 00:00:00
TRACK 02 AUDIO
TITLE "Partita No3 in E for solo Violin,II Loure, J.S.Bach"
PERFORMER "Vanessa-Mae"
INDEX 00 03:47:42
INDEX 01 03:49:41
TRACK 03 AUDIO
TITLE "Partita No3 in E for solo Violin,III Gavotte en Rondeau, J.S.Bach"
PERFORMER "Vanessa-Mae"
INDEX 00 07:02:56
INDEX 01 07:04:55
TRACK 04 AUDIO
TITLE "Partita No3 in E for solo Violin,IV Menuet I, J.S.Bach"
PERFORMER "Vanessa-Mae"
INDEX 00 10:09:23
INDEX 01 10:11:22
TRACK 05 AUDIO
TITLE "Partita No3 in E for solo Violin, V Menuet II, J.S.Bach"
PERFORMER "Vanessa-Mae"
INDEX 00 11:26:54
INDEX 01 11:28:53
TRACK 06 AUDIO
TITLE "Partita No3 in E for solo Violin,VI Bourree, J.S.Bach"
PERFORMER "Vanessa-Mae"
INDEX 00 12:53:37
INDEX 01 12:55:36
TRACK 07 AUDIO
TITLE "Partita No3 in E for solo Violin,VII Gigue, J.S.Bach"
PERFORMER "Vanessa-Mae"
INDEX 00 14:10:36
INDEX 01 14:12:35
TRACK 08 AUDIO
TITLE "Scherzo in C Minor for Violin and Piano, J. Brahms"
PERFORMER "Vanessa-Mae"
INDEX 00 15:47:67
INDEX 01 15:49:66
TRACK 09 AUDIO
TITLE "Romance no2 in F for Violin and Orchestra, L.van Beethoven"
PERFORMER "Vanessa-Mae"
INDEX 00 21:17:48
INDEX 01 21:19:47
TRACK 10 AUDIO
TITLE "Scottish Fantasy, Introduction Grave, Max Bruch"
PERFORMER "Vanessa-Mae"
INDEX 00 29:49:23
INDEX 01 29:51:22
TRACK 11 AUDIO
TITLE "Scottish Fantasy, Adagio Cantabile,, Max Bruch"
PERFORMER "Vanessa-Mae"
INDEX 00 33:07:42
INDEX 01 33:09:41
TRACK 12 AUDIO
TITLE "Scottish Fantasy, Allegro, Max Bruch"
PERFORMER "Vanessa-Mae"
INDEX 00 37:13:55
INDEX 01 37:15:54
TRACK 13 AUDIO
TITLE "Scottish Fantasy, Adagio,, Max Bruch"
PERFORMER "Vanessa-Mae"
INDEX 00 42:42:01
INDEX 01 42:44:00

Отчет EAC

Exact Audio Copy V0.99 prebeta 1 from 25. May 2007
EAC extraction logfile from 9. August 2007, 20:18
Vanessa Mae / The Classical Album 1
Used drive : Optiarc DVD RW AD-7173S Adapter: 1 ID: 1
Read mode : Secure
Utilize accurate stream : Yes
Defeat audio cache : Yes
Make use of C2 pointers : No
Read offset correction : 66
Overread into Lead-In and Lead-Out : No
Fill up missing offset samples with silence : Yes
Delete leading and trailing silent blocks : No
Used interface : Installed external ASPI interface
Used output format : Internal WAV Routines
Sample format : 44.100 Hz; 16 Bit; Stereo
Use compression offset : 66
TOC of the extracted CD
Track | Start | Length | Start sector | End sector
---------------------------------------------------------
1 | 0:00.00 | 3:49.41 | 0 | 17215
2 | 3:49.41 | 3:15.14 | 17216 | 31854
3 | 7:04.55 | 3:06.42 | 31855 | 45846
4 | 10:11.22 | 1:17.31 | 45847 | 51652
5 | 11:28.53 | 1:26.58 | 51653 | 58160
6 | 12:55.36 | 1:16.74 | 58161 | 63934
7 | 14:12.35 | 1:37.31 | 63935 | 71240
8 | 15:49.66 | 5:29.56 | 71241 | 95971
9 | 21:19.47 | 8:31.50 | 95972 | 134346
10 | 29:51.22 | 3:18.19 | 134347 | 149215
11 | 33:09.41 | 4:06.13 | 149216 | 167678
12 | 37:15.54 | 5:28.21 | 167679 | 192299
13 | 42:44.00 | 1:01.05 | 192300 | 196879
14 | 43:45.05 | 5:33.23 | 196880 | 221877
15 | 49:18.28 | 7:01.31 | 221878 | 253483
16 | 56:19.59 | 4:30.06 | 253484 | 273739
Range status and errors
Selected range
Filename C:\RIP\Vanessa Mae - The Classical Album 1.wav
Peak level 100.0 %
Range quality 99.9 %
Copy CRC AF60252A
Copy OK
No errors occurred
End of status report

1997. Storm

Storm - один из самых успешных альбомов Ванессы Мэй, как в отношении выбранного стиля, так и в качестве продаж.
Альбом содержит кавер версии поп-хитов, таких как Hocus Pocus группы FOCUS и I Feel Love" Донны Саммер.Включает он также и композиции самой Ванессы, написанные в соавторстве с продюссером Энди Хиллом.
Трэклист:
01. Summer haze (3:09)
02. Storm (3:43)
03. Retro (3:57)
04. Bach street prelude (4:26)
05. Leyenda (6:32)
06. (I) Can, Can (You?) (3:41)
07. Happy valley (6:33)
08. A poet's quest (For a distant paradise) (4:32)
09. Embrasse moi (You fly me up) (5:03)
10. Aurora (4:56)
11. I'm a doun (4:29)
12. I feel love (6:58)
13. Hocus pocus (3:14)
14. The blessed spirits (8:17)
Продолжительность: 1:09:30
Формат: FLAC (image + .cue)
Битрейт аудио: lossless
Источник: собственный диск

CUEsheet

REM DATE 1997
PERFORMER "Vanessa-Mae"
TITLE "Storm"
FILE "CDImage.flac" WAVE
TRACK 01 AUDIO
TITLE "Summer haze"
INDEX 01 00:00:00
TRACK 02 AUDIO
TITLE "Storm"
INDEX 01 03:09:17
TRACK 03 AUDIO
TITLE "Retro"
INDEX 01 06:52:50
TRACK 04 AUDIO
TITLE "Bach street prelude"
INDEX 01 10:49:67
TRACK 05 AUDIO
TITLE "Leyenda"
INDEX 01 15:15:47
TRACK 06 AUDIO
TITLE "(I) Can, Can (You?)"
INDEX 01 21:48:07
TRACK 07 AUDIO
TITLE "Happy valley"
INDEX 01 25:28:55
TRACK 08 AUDIO
TITLE "A poet's quest (For a distant paradise)"
INDEX 01 32:01:35
TRACK 09 AUDIO
TITLE "Embrasse moi (You fly me up)"
INDEX 01 36:33:07
TRACK 10 AUDIO
TITLE "Aurora"
INDEX 01 41:36:25
TRACK 11 AUDIO
TITLE "I'm a doun"
INDEX 01 46:32:37
TRACK 12 AUDIO
TITLE "I feel love"
INDEX 01 51:01:25
TRACK 13 AUDIO
TITLE "Hocus pocus"
INDEX 01 57:58:70
TRACK 14 AUDIO
TITLE "The blessed spirits"
INDEX 01 61:13:17

Отчет EAC

EAC extraction logfile from 11. March 2006, 6:17 for CD
Vanessa-Mae / Storm
Used drive : PLEXTOR CD-R PREMIUM Adapter: 0 ID: 1
Read mode : Secure with NO C2, accurate stream, disable cache
Read offset correction : 30
Overread into Lead-In and Lead-Out : Yes
Used output format : Internal WAV Routines
44.100 Hz; 16 Bit; Stereo
Other options :
Fill up missing offset samples with silence : Yes
Delete leading and trailing silent blocks : No
Installed external ASPI interface
Range status and errors
Selected range
Filename C:\MUSIC\IMAGE\CDImage.wav
Peak level 98.8 %
Range quality 99.9 %
CRC 0D34378E
Copy OK
No errors occured
End of status report

1997. The Classical Album 2: China Girl

China Girl: The Classical Album 2 - альбом, с которым Ванесса Мэй <вернулась> в Азию. Альбом идеологической направленности. Ванесса Мэй на половину тайка, на другую китаянка. Она всегда считала себя китаянкой, что и продемонстрировала выпуском этого альбома.
Известен так же и тот факт, что в 1997 Гонконг удостоил Ванессу приглашением исполнять в Гонконге на Церемонии Воссоединения Китая, где она была единственным неместным исполнителем. Что и послужило выпуском альбома 'ChinaGirl', как продолжение размышлений о её китайских корнях с тех пор, как умер ее дедушка, когда ей было пятнадцать.
Трэклист:
01. Butterfly Lovers' Violin Concerto (26:46)
02. Fantasy on Puccini's Turandot (11:37)
03. Happy Valley (6:35)
Продолжительность: 44:57
Формат: FLAC (image + .cue)
Битрейт аудио: lossless
Источник: edK (релизер неизвестен)

CUEsheet

REM DATE 1997
PERFORMER "Vanessa-Mae"
TITLE "The classical album 2 - China girl"
FILE "CDImage.flac" WAVE
TRACK 01 AUDIO
TITLE "Butterfly Lovers' Violin Concerto"
INDEX 00 00:00:00
INDEX 01 00:00:33
TRACK 02 AUDIO
TITLE "Fantasy on Puccini's Turandot"
INDEX 00 26:38:10
INDEX 01 26:46:70
TRACK 03 AUDIO
TITLE "Happy Valley"
INDEX 00 38:12:05
INDEX 01 38:23:50

Отчет EAC

EAC extraction logfile from 6. April 2005, 2:20 for CD
Vanessa-Mae / The classical album 2 - China girl
Used drive : HP CD-Writer+ 9100b Adapter: 0 ID: 0
Read mode : Secure with NO C2, accurate stream, NO disable cache
Read offset correction : 0
Overread into Lead-In and Lead-Out : No
Used output format : C:\Archivos de programa\Monkey's Audio\MAC.exe (Monkey's Audio Lossless Encoder)
Normal Lossless Compression
Other options :
Fill up missing offset samples with silence : No
Delete leading and trailing silent blocks : No
Installed external ASPI interface
Range status and errors
Selected range
Filename D:\CDImage.wav
Peak level 96.6 %
Range quality 99.9 %
Copy OK
No errors occured
End of status report

1998. The classical album 3 - The Italian album (The original four seasons and the Devil's trill sonata&#41;

The Original Four Seasons and the Devil's Trill Sonata: The Classical Album 3 - альбом полностью посвящён акустической и стиливой обработке произведений Вивальди <Времена года>.
Трэклист:
01. Spring - I Allegro (3:13)
02. Spring - II Largo e pianissimo sempre (3:08)
03. Spring - III Allegro (4:02)
04. Summer - I Allegro non molto (5:16)
05. Summer - II Adagio (2:22)
06. Summer - III Tempo impetuoso d'Estate (2:40)
07. Autumn - I Allegro (5:25)
08. Autumn - II Adagio (2:12)
09. Autumn - III La caccia (3:18)
10. Winter - I Allegro non molto (3:44)
11. Winter - II Largo (3:12)
12. Winter - III Allegro (3:25)
13. The Devil's Trill Sonata - I Larghetto, ma non troppo (3:07)
14. The Devil's Trill Sonata - II Allegro Moderato (2:32)
15. The Devil's Trill Sonata - III Grave, Allegro assai, Grave, Allegro assai, Gr... (7:15)
16. Devil's Trill (3:46)
17. Reflection (from 'Walt Disney's Mulan') (4:24)
Продолжительность: 1:03:01
Формат: FLAC (image + .cue)
Битрейт аудио: lossless
Источник: собственный диск

CUEsheet

REM DATE 1998
PERFORMER "Vanessa-Mae"
TITLE "The classical album 3 - The Italian album (The original four seasons and the Devil's trill sonata)"
FILE "CDImage.flac" WAVE
TRACK 01 AUDIO
TITLE "Spring - I Allegro"
INDEX 01 00:00:00
TRACK 02 AUDIO
TITLE "Spring - II Largo e pianissimo sempre"
INDEX 00 03:10:20
INDEX 01 03:12:65
TRACK 03 AUDIO
TITLE "Spring - III Allegro"
INDEX 00 06:20:20
INDEX 01 06:20:70
TRACK 04 AUDIO
TITLE "Summer - I Allegro non molto"
INDEX 00 10:17:40
INDEX 01 10:23:25
TRACK 05 AUDIO
TITLE "Summer - II Adagio"
INDEX 00 15:38:02
INDEX 01 15:39:62
TRACK 06 AUDIO
TITLE "Summer - III Tempo impetuoso d'Estate"
INDEX 01 18:01:57
TRACK 07 AUDIO
TITLE "Autumn - I Allegro"
INDEX 00 20:36:10
INDEX 01 20:41:22
TRACK 08 AUDIO
TITLE "Autumn - II Adagio"
INDEX 00 26:03:22
INDEX 01 26:06:37
TRACK 09 AUDIO
TITLE "Autumn - III La caccia"
INDEX 00 28:17:22
INDEX 01 28:18:00
TRACK 10 AUDIO
TITLE "Winter - I Allegro non molto"
INDEX 00 31:30:07
INDEX 01 31:36:10
TRACK 11 AUDIO
TITLE "Winter - II Largo"
INDEX 00 35:17:20
INDEX 01 35:20:12
TRACK 12 AUDIO
TITLE "Winter - III Allegro"
INDEX 00 38:30:05
INDEX 01 38:32:32
TRACK 13 AUDIO
TITLE "The Devil's Trill Sonata - I Larghetto, ma non troppo"
INDEX 00 41:50:42
INDEX 01 41:57:32
TRACK 14 AUDIO
TITLE "The Devil's Trill Sonata - II Allegro Moderato"
INDEX 01 45:04:62
TRACK 15 AUDIO
TITLE "The Devil's Trill Sonata - III Grave, Allegro assai, Grave, Allegro assai, Gr..."
INDEX 00 47:34:10
INDEX 01 47:36:72
TRACK 16 AUDIO
TITLE "Devil's Trill"
INDEX 00 54:42:57
INDEX 01 54:51:45
TRACK 17 AUDIO
TITLE "Reflection (from 'Walt Disney's Mulan')"
INDEX 00 58:33:00
INDEX 01 58:37:32

Отчет EAC

EAC extraction logfile from 11. March 2006, 6:03 for CD
Vanessa-Mae / The classical album 3 - The Italian album (The original four seasons and the Devil's trill sonata)
Used drive : PLEXTOR CD-R PREMIUM Adapter: 0 ID: 1
Read mode : Secure with NO C2, accurate stream, disable cache
Read offset correction : 30
Overread into Lead-In and Lead-Out : Yes
Used output format : Internal WAV Routines
44.100 Hz; 16 Bit; Stereo
Other options :
Fill up missing offset samples with silence : Yes
Delete leading and trailing silent blocks : No
Installed external ASPI interface
Range status and errors
Selected range
Filename C:\MUSIC\IMAGE\CDImage.wav
Peak level 94.8 %
Range quality 100.0 %
CRC 312E0E0A
Copy OK
No errors occured
End of status report

2000. The classical collection. Part 1

The Classical Collection: Part 1 - уникальный альбом Ванессы Мэй - буквально 3 разноплановых альбома под одной обложкой.
* Русский альбом - произведения Чайковского и Кабалевского.
* Венский альбом - произведения Крейслера, Касадеcуса и Бетховена.
* Альбом Виртуоза - фьюжн попурри из произведений Битлз и Кармен, саундтреков к фильмам "Розовая пантера" и "Шербурские зонтики", в альбом также включино народное китайское произведение.
Формат: FLAC (image + .cue)
Битрейт аудио: lossless
Доп. информация: Источник - собственный диск

Russian album

Трэклист:
01. Kabalevsky: Violin concerto in C, Op.48 - I. Allegro (4:30)
02. Kabalevsky: Violin concerto in C, Op.48 - II. Andante (5:02)
03. Kabalevsky: Violin concerto in C, Op.48 - III. Vivace giocoso (5:59)
04. Tchaikovsky: Russian dance (Swan lake) (4:08)
05. Tchaikovsky: Violin concerto in D, Op.35 - I. Allegro moderato (17:23)
06. Tchaikovsky: Violin concerto in D, Op.35 - II. Canzonetta (Andante) (5:46)
07. Tchaikovsky: Violin concerto in D, Op.35 - III. Finale (Allegro vivacissimo) (9:06)
Продолжительность: 51:54

CUEsheet

REM DATE 2000
PERFORMER "Vanessa-Mae"
TITLE "The classical collection. Part 1 - Russian album"
FILE "CDImage.flac" WAVE
TRACK 01 AUDIO
TITLE "Kabalevsky: Violin concerto in C, Op.48 - I. Allegro"
INDEX 01 00:00:00
TRACK 02 AUDIO
TITLE "Kabalevsky: Violin concerto in C, Op.48 - II. Andante"
INDEX 01 04:30:30
TRACK 03 AUDIO
TITLE "Kabalevsky: Violin concerto in C, Op.48 - III. Vivace giocoso"
INDEX 01 09:32:60
TRACK 04 AUDIO
TITLE "Tchaikovsky: Russian dance (Swan lake)"
INDEX 00 15:24:20
INDEX 01 15:31:47
TRACK 05 AUDIO
TITLE "Tchaikovsky: Violin concerto in D, Op.35 - I. Allegro moderato"
INDEX 00 19:32:22
INDEX 01 19:39:32
TRACK 06 AUDIO
TITLE "Tchaikovsky: Violin concerto in D, Op.35 - II. Canzonetta (Andante)"
INDEX 01 37:02:00
TRACK 07 AUDIO
TITLE "Tchaikovsky: Violin concerto in D, Op.35 - III. Finale (Allegro vivacissimo)"
INDEX 01 42:48:25

Отчет EAC

EAC extraction logfile from 23. February 2006, 17:59 for CD
Vanessa-Mae / The classical collection. Part 1 - Russian album
Used drive : PLEXTOR CD-R PREMIUM Adapter: 0 ID: 1
Read mode : Secure with NO C2, accurate stream, disable cache
Read offset correction : 30
Overread into Lead-In and Lead-Out : Yes
Used output format : Internal WAV Routines
44.100 Hz; 16 Bit; Stereo
Other options :
Fill up missing offset samples with silence : Yes
Delete leading and trailing silent blocks : No
Installed external ASPI interface
Range status and errors
Selected range
Filename C:\MUSIC\IMAGE\CDImage.wav
Peak level 98.1 %
Range quality 100.0 %
CRC 7015E24B
Copy OK
No errors occured
End of status report

Viennese album

Трэклист:
01. Fritz Kreisler: Schon Rosmarin (1:57)
02. Fritz Kreisler: Liebesleid (2:55)
03. Fritz Kreisler: Liebesfreud (3:11)
04. Marius Casadesus: Violin Concerto in D 'Adelaide' (in the style of Mozart) - ... (7:22)
05. Marius Casadesus: Violin Concerto in D 'Adelaide' (in the style of Mozart) - ... (7:15)
06. Marius Casadesus: Violin Concerto in D 'Adelaide' (in the style of Mozart) - ... (4:29)
07. Ludwig van Beethoven: Violin Concerto in D Op.61 - I. Allegro ma non troppo (22:47)
08. Ludwig van Beethoven: Violin Concerto in D Op.61 - II. Larghetto (8:06)
09. Ludwig van Beethoven: Violin Concerto in D Op.61 - III. Rondo (Allegro) (9:46)
Продолжительность: 1:07:47

CUEshhet

REM DATE 2000
PERFORMER "Vanessa-Mae"
TITLE "The classical collection. Part 1 - Viennese album"
FILE "CDImage.flac" WAVE
TRACK 01 AUDIO
TITLE "Fritz Kreisler: Schon Rosmarin"
INDEX 01 00:00:00
TRACK 02 AUDIO
TITLE "Fritz Kreisler: Liebesleid"
INDEX 01 01:57:12
TRACK 03 AUDIO
TITLE "Fritz Kreisler: Liebesfreud"
INDEX 01 04:51:60
TRACK 04 AUDIO
TITLE "Marius Casadesus: Violin Concerto in D 'Adelaide' (in the style of Mozart) - ..."
INDEX 00 07:55:47
INDEX 01 08:02:50
TRACK 05 AUDIO
TITLE "Marius Casadesus: Violin Concerto in D 'Adelaide' (in the style of Mozart) - ..."
INDEX 01 15:24:52
TRACK 06 AUDIO
TITLE "Marius Casadesus: Violin Concerto in D 'Adelaide' (in the style of Mozart) - ..."
INDEX 01 22:39:35
TRACK 07 AUDIO
TITLE "Ludwig van Beethoven: Violin Concerto in D Op.61 - I. Allegro ma non troppo"
INDEX 00 27:00:22
INDEX 01 27:08:07
TRACK 08 AUDIO
TITLE "Ludwig van Beethoven: Violin Concerto in D Op.61 - II. Larghetto"
INDEX 01 49:55:10
TRACK 09 AUDIO
TITLE "Ludwig van Beethoven: Violin Concerto in D Op.61 - III. Rondo (Allegro)"
INDEX 01 58:01:02

Отчет EAC

EAC extraction logfile from 23. February 2006, 18:17 for CD
Vanessa-Mae / The classical collection. Part 1 - Viennese album
Used drive : PLEXTOR CD-R PREMIUM Adapter: 0 ID: 1
Read mode : Secure with NO C2, accurate stream, disable cache
Read offset correction : 30
Overread into Lead-In and Lead-Out : Yes
Used output format : Internal WAV Routines
44.100 Hz; 16 Bit; Stereo
Other options :
Fill up missing offset samples with silence : Yes
Delete leading and trailing silent blocks : No
Installed external ASPI interface
Range status and errors
Selected range
Filename C:\MUSIC\IMAGE\CDImage.wav
Peak level 93.2 %
Range quality 100.0 %
CRC EA17E19A
Copy OK
No errors occured
End of status report

Virtuoso album

Трэклист:
01. Salut d'armour (2:26)
02. Lullaby (2:00)
03. Air on the G String (2:26)
04. My favourite things (1:16)
05. The pink panther (2:28)
06. Les Parapluies de Cherbourg (1:51)
07. One moment in time (4:36)
08. Yellow submarine (1:43)
09. Frere Jacques (8:55)
10. La campanella (5:23)
11. Chinese folk tune (2:37)
12. Tambourin chinois (4:04)
13. Figaro (5:30)
14. Sumertime (1:52)
15. Concert Fantasy on 'Carmen' Op.25 (13:37)
16. Fantaisie brillante on themes from Gounod's 'Faust' Op.20 (16:20)
Продолжительность: 1:17:03

CUEsheet

REM DATE 2000
PERFORMER "Vanessa-Mae"
TITLE "The classical collection. Part 1 - Virtuoso album"
FILE "CDImage.flac" WAVE
TRACK 01 AUDIO
TITLE "Salut d'armour"
INDEX 01 00:00:00
TRACK 02 AUDIO
TITLE "Lullaby"
INDEX 01 02:26:17
TRACK 03 AUDIO
TITLE "Air on the G String"
INDEX 01 04:26:20
TRACK 04 AUDIO
TITLE "My favourite things"
INDEX 00 06:47:60
INDEX 01 06:52:57
TRACK 05 AUDIO
TITLE "The pink panther"
INDEX 01 08:08:62
TRACK 06 AUDIO
TITLE "Les Parapluies de Cherbourg"
INDEX 01 10:36:55
TRACK 07 AUDIO
TITLE "One moment in time"
INDEX 00 12:22:47
INDEX 01 12:27:67
TRACK 08 AUDIO
TITLE "Yellow submarine"
INDEX 01 17:04:02
TRACK 09 AUDIO
TITLE "Frere Jacques"
INDEX 00 18:42:25
INDEX 01 18:47:17
TRACK 10 AUDIO
TITLE "La campanella"
INDEX 01 27:41:70
TRACK 11 AUDIO
TITLE "Chinese folk tune"
INDEX 01 33:04:45
TRACK 12 AUDIO
TITLE "Tambourin chinois"
INDEX 01 35:41:12
TRACK 13 AUDIO
TITLE "Figaro"
INDEX 00 39:39:67
INDEX 01 39:45:32
TRACK 14 AUDIO
TITLE "Sumertime"
INDEX 01 45:15:02
TRACK 15 AUDIO
TITLE "Concert Fantasy on 'Carmen' Op.25"
INDEX 01 47:07:27
TRACK 16 AUDIO
TITLE "Fantaisie brillante on themes from Gounod's 'Faust' Op.20"
INDEX 01 60:44:22

Отчет EAC

EAC extraction logfile from 23. February 2006, 19:16 for CD
Vanessa-Mae / The classical collection. Part 1 - Virtuoso album
Used drive : PLEXTOR CD-R PREMIUM Adapter: 0 ID: 1
Read mode : Secure with NO C2, accurate stream, disable cache
Read offset correction : 30
Overread into Lead-In and Lead-Out : Yes
Used output format : Internal WAV Routines
44.100 Hz; 16 Bit; Stereo
Other options :
Fill up missing offset samples with silence : Yes
Delete leading and trailing silent blocks : No
Installed external ASPI interface
Range status and errors
Selected range
Filename C:\MUSIC\IMAGE\CDImage.wav
Peak level 95.9 %
Range quality 100.0 %
CRC 301FC476
Copy OK
No errors occured
End of status report

2001. Subject to change

Subject to Change - один из самых долгожданных и удачных альбомов Ванессы Мэй. На сей день - это последний индивидуальный альбом Ванессы Мэй.
Трэклист:
01. Yantra (5:52)
02. White bird (5:33)
03. Picante (2:57)
04. Destiny (6:48)
05. Night flight (4:41)
06. Clear like ice (5:10)
07. Laughing Buddha (6:09)
08. Pasha (4:27)
09. Solace (4:34)
10. Love is only a game (2:53)
11. Deep south (6:20)
12. Jamais (9:01)
Продолжительность: 1:04:25
Формат: FLAC (image + .cue)
Битрейт аудио: lossless
Доп. информация: Источник - собственный диск

CUEsheet

REM DATE 2001
PERFORMER "Vanessa-Mae"
TITLE "Subject to change"
FILE "CDImage.flac" WAVE
TRACK 01 AUDIO
TITLE "Yantra"
INDEX 01 00:00:00
TRACK 02 AUDIO
TITLE "White bird"
INDEX 00 05:50:35
INDEX 01 05:52:07
TRACK 03 AUDIO
TITLE "Picante"
INDEX 00 11:22:55
INDEX 01 11:25:17
TRACK 04 AUDIO
TITLE "Destiny"
INDEX 00 14:21:00
INDEX 01 14:22:22
TRACK 05 AUDIO
TITLE "Night flight"
INDEX 00 21:08:40
INDEX 01 21:10:47
TRACK 06 AUDIO
TITLE "Clear like ice"
INDEX 00 25:48:60
INDEX 01 25:51:57
TRACK 07 AUDIO
TITLE "Laughing Buddha"
INDEX 01 31:01:22
TRACK 08 AUDIO
TITLE "Pasha"
INDEX 00 37:08:65
INDEX 01 37:10:22
TRACK 09 AUDIO
TITLE "Solace"
INDEX 00 41:34:70
INDEX 01 41:37:32
TRACK 10 AUDIO
TITLE "Love is only a game"
INDEX 00 46:08:10
INDEX 01 46:11:17
TRACK 11 AUDIO
TITLE "Deep south"
INDEX 00 49:03:15
INDEX 01 49:04:52
TRACK 12 AUDIO
TITLE "Jamais"
INDEX 00 55:22:65
INDEX 01 55:24:37
TRACK 13 AUDIO
TITLE "Tourmaline (hidden track)"
INDEX 00 59:47:32
INDEX 01 60:16:32

Отчет EAC

Отчёт EAC об извлечении, выполненном 5. сентября 2005, 18:49 для диска:
Vanessa-Mae / Subject to change
Дисковод: PLEXTOR CD-R PREMIUM Adapter: 1 ID: 0
Режим чтения: Достоверный (C2: нет, Точный поток: да, Отключение кэша: да)
Коррекция смещения при чтении: 30
Способность читать области Lead-in и Lead-out : Нет
Выходной формат: Внутренние WAV-операции
44.100 Гц; 16 бит; стерео
Другие параметры:
Заполнение пропущенных сэмплов тишиной : Да
Удаление блоков с тишиной в начале и конце : Нет
Установленный внешний ASPI-интерфейс
Характеристики диапазона извлечения и сообщения об ошибках
Выбранный диапазон
Имя файла C:\MUSIC\IMAGE\CDImage.wav
Пиковый уровень 100.0 %
Качество диапазона 100.0 %
CRC C9A47C22
Копирование... OK
Ошибок не произошло
Конец отчёта

2002. The Best of Vanessa-Mae

Трэклист:
01. Art of War (4:03)
02. Toccata and Fugue in D minor (3:39)
03. Destiny (3:12)
04. Nessun Dorma From Violin Fantasy on Puccini's 'Turandot' (3:17)
05. I'm A-Doun for Lack O' Johnnie (A Little Scottish Fantasy) (4:30)
06. Storm (3:44)
07. I Feel Love (4:26)
08. Bach Street Prelude (4:27)
09. Aurora (4:53)
10. The Original Four Seasons - Winter (II) (3:11)
11. Contradanza (3:19)
12. White Bird (3:33)
13. The Original Four Seasons - Summer (I) (5:16)
14. Happy Valley (6:35)
15. Devil's Trill (3:37)
16. Solace (4:31)
Продолжительность: 1:06:14
Формат: FLAC (image + .cue)
Битрейт аудио: lossless
Доп. информация: Источник - eDk (релизёр неизвестен)

CUEsheet

REM DATE 2002
PERFORMER "Vanessa-Mae"
TITLE "The Best of Vanessa-Mae"
FILE "CDImage.flac" WAVE
TRACK 01 AUDIO
TITLE "Art of War"
ISRC GBAYE0100400
INDEX 01 00:00:00
TRACK 02 AUDIO
TITLE "Toccata and Fugue in D minor"
ISRC GBAYD9400277
INDEX 01 04:03:22
TRACK 03 AUDIO
TITLE "Destiny"
ISRC GBAYE0100400
INDEX 01 07:42:42
TRACK 04 AUDIO
TITLE "Nessun Dorma From Violin Fantasy on Puccini's 'Turandot'"
ISRC GBAYE0100400
INDEX 00 10:10:57
INDEX 01 10:54:20
TRACK 05 AUDIO
TITLE "I'm A-Doun for Lack O' Johnnie (A Little Scottish Fantasy)"
ISRC GBAYE0200870
INDEX 00 13:25:41
INDEX 01 14:11:40
TRACK 06 AUDIO
TITLE "Storm"
ISRC GBAYE0100400
INDEX 00 17:38:41
INDEX 01 18:42:00
TRACK 07 AUDIO
TITLE "I Feel Love"
ISRC GBAYD9600044
INDEX 01 22:26:35
TRACK 08 AUDIO
TITLE "Bach Street Prelude"
ISRC GBAYD9400034
INDEX 01 26:52:50
TRACK 09 AUDIO
TITLE "Aurora"
ISRC GBAYD9400277
INDEX 00 30:16:07
INDEX 01 31:19:62
TRACK 10 AUDIO
TITLE "The Original Four Seasons - Winter (II)"
ISRC GBAYE0100400
INDEX 00 35:02:44
INDEX 01 36:12:60
TRACK 11 AUDIO
TITLE "Contradanza"
INDEX 00 39:23:02
INDEX 01 39:23:45
TRACK 12 AUDIO
TITLE "White Bird"
ISRC GBAYE0100400
INDEX 00 41:05:20
INDEX 01 42:42:50
TRACK 13 AUDIO
TITLE "The Original Four Seasons - Summer (I)"
ISRC GBAYE0100400
INDEX 01 46:15:25
TRACK 14 AUDIO
TITLE "Happy Valley"
ISRC GBAYD9400277
INDEX 00 51:28:60
INDEX 01 51:31:20
TRACK 15 AUDIO
TITLE "Devil's Trill"
ISRC GBAYE0100400
INDEX 00 54:50:47
INDEX 01 58:06:05
TRACK 16 AUDIO
TITLE "Solace"
ISRC GBAYE0100400
INDEX 01 61:43:05

Отчет EAC

EAC extraction logfile from 2. August 2001, 17:25 for CD
Vanessa-Mae / the best of Vanessa-Mae
Used drive : LG CD-RW CED-8120B Adapter: 1 ID: 0
Read mode : Secure with NO C2, accurate stream, disable cache
Read offset correction : 0
Overread into Lead-In and Lead-Out : No
Used output format : Internal WAV Routines
44.100 Hz; 16 Bit; Stereo
Other options :
Fill up missing offset samples with silence : Yes
Delete leading and trailing silent blocks : No
Installed external ASPI interface
Range status and errors
Selected range
Filename C:\tmz\Vanessa-Mae - The Best Of\CDImage.wav
Peak level 98.7 %
Range quality 99.9 %
CRC 53D02674
Copy OK
No errors occured
End of status report

2003. The Ultimate

The Ultimate - сборник лучших и наиболее популярных композиций Ванессы Мэй.
Трэклист:
01. Classical Gas (3:48)
02. I Feel Love (4:26)
03. Picante (2:59)
04. Red Hot (Symphonic Mix) (4:34)
05. Yantra (5:52)
06. Back Street Prelude (4:29)
07. Leyenda (6:36)
08. Cotton Eye Joe (Live) (3:18)
09. (I) Can, Can (You?) (3:43)
10. Widescreen (4:01)
11. Night Flight (4:40)
12. Toccata & Fugue in D Minor (Live) (4:41)
13. Allegro (Spring - The Original Four Seasons) (3:11)
14. Scherzo in C Minor for Violin & Piano (5:21)
Продолжительность: 1:01:39
Формат: FLAC (image + .cue)
Битрейт аудио: lossless
Доп. информация: Источник - eDk (релизер 64fp)

CUEsheet

REM DATE 2003
PERFORMER "Vanessa-Mae"
TITLE "The Ultimate"
FILE "CDImage.flac" WAVE
TRACK 01 AUDIO
TITLE "Classical Gas"
INDEX 01 00:00:00
TRACK 02 AUDIO
TITLE "I Feel Love"
INDEX 00 03:45:40
INDEX 01 03:48:16
TRACK 03 AUDIO
TITLE "Picante"
INDEX 00 08:11:48
INDEX 01 08:14:24
TRACK 04 AUDIO
TITLE "Red Hot (Symphonic Mix)"
INDEX 00 11:10:50
INDEX 01 11:13:26
TRACK 05 AUDIO
TITLE "Yantra"
INDEX 00 15:44:29
INDEX 01 15:47:05
TRACK 06 AUDIO
TITLE "Back Street Prelude"
INDEX 00 21:36:43
INDEX 01 21:39:18
TRACK 07 AUDIO
TITLE "Leyenda"
INDEX 00 26:05:36
INDEX 01 26:08:12
TRACK 08 AUDIO
TITLE "Cotton Eye Joe (Live)"
INDEX 00 32:41:05
INDEX 01 32:43:56
TRACK 09 AUDIO
TITLE "(I) Can, Can (You?)"
INDEX 00 35:59:29
INDEX 01 36:02:05
TRACK 10 AUDIO
TITLE "Widescreen"
INDEX 00 39:42:09
INDEX 01 39:44:60
TRACK 11 AUDIO
TITLE "Night Flight"
INDEX 00 43:43:11
INDEX 01 43:45:62
TRACK 12 AUDIO
TITLE "Toccata & Fugue in D Minor (Live)"
INDEX 00 48:23:33
INDEX 01 48:26:09
TRACK 13 AUDIO
TITLE "Allegro (Spring - The Original Four Seasons)"
INDEX 00 53:04:35
INDEX 01 53:07:11
TRACK 14 AUDIO
TITLE "Scherzo in C Minor for Violin & Piano"
INDEX 00 56:15:41
INDEX 01 56:18:17

Отчет EAC

EAC extraction logfile from 27. October 2005, 15:53 for CD
Vanessa-Mae / The Ultimate Vanessa-Mae
Used drive : _NEC DVD_RW ND-2500A Adapter: 1 ID: 0
Read mode : Secure with NO C2, accurate stream, disable cache
Read offset correction : 48
Overread into Lead-In and Lead-Out : No
Used output format : Monkey's Audio Lossless Encoder v3.99 DLL
Normal Lossless Compression
Other options :
Fill up missing offset samples with silence : Yes
Delete leading and trailing silent blocks : No
Installed external ASPI interface
Range status and errors
Selected range
Filename D:\IMAGE\Vanessa-Mae - The Ultimate Vanessa-Mae\CDImage.ape
Peak level 100.0 %
Range quality 99.7 %
CRC 9A7A0C72
Copy OK
No errors occured
End of status report

2004. Choreography

Choreography - альбом Ванессы Мэй, совместная работа Vangelis, Билла Велара, A. Р. Рахмана, Толга Кашифа и Уолтер Тайба. Ванесса выступает с Королевским Филармоническим Оркестром.
Композиция "Изумрудный Тигр" создана составом Riverdance's, и является своего рода ирландским/азиатским миксом - одна из особенностей альбома.
Трэклист:
01. Sabre dance (5:59)
02. Roxane's veil (4:43)
03. Bolero for violin and orchestra (5:07)
04. Tango de los exilados (3:56)
05. The havana slide (3:46)
06. Emerald tiger (3:51)
07. Tribal geathering (3:38)
08. Raga's dance (5:26)
09. Moroccan roll (3:09)
10. Handel's minuet (3:50)
Продолжительность: 43:23
Формат: FLAC (image + .cue)
Битрейт аудио: lossless
Доп. информация: Источник - собственный диск

CUEsheet

REM DATE 2004
PERFORMER "Vanessa-Mae"
TITLE "Choreography"
FILE "CDImage.flac" WAVE
TRACK 01 AUDIO
TITLE "Sabre dance"
INDEX 01 00:00:00
TRACK 02 AUDIO
TITLE "Roxane's veil"
INDEX 01 05:59:15
TRACK 03 AUDIO
TITLE "Bolero for violin and orchestra"
INDEX 01 10:42:07
TRACK 04 AUDIO
TITLE "Tango de los exilados"
INDEX 01 15:48:62
TRACK 05 AUDIO
TITLE "The havana slide"
INDEX 01 19:44:50
TRACK 06 AUDIO
TITLE "Emerald tiger"
INDEX 01 23:30:40
TRACK 07 AUDIO
TITLE "Tribal geathering"
INDEX 01 27:21:05
TRACK 08 AUDIO
TITLE "Raga's dance"
INDEX 01 30:58:52
TRACK 09 AUDIO
TITLE "Moroccan roll"
INDEX 01 36:25:00
TRACK 10 AUDIO
TITLE "Handel's minuet"
INDEX 01 39:33:45

Отчет EAC

Отчёт EAC об извлечении, выполненном 13. августа 2005, 23:00 для диска:
Vanessa-Mae / Choreography
Дисковод: PLEXTOR CD-R PREMIUM Adapter: 1 ID: 0
Режим чтения: Достоверный (C2: нет, Точный поток: да, Отключение кэша: да)
Коррекция смещения при чтении: 30
Способность читать области Lead-in и Lead-out : Нет
Выходной формат: Внутренние WAV-операции
44.100 Гц; 16 бит; стерео
Другие параметры:
Заполнение пропущенных сэмплов тишиной : Да
Удаление блоков с тишиной в начале и конце : Нет
Установленный внешний ASPI-интерфейс
Характеристики диапазона извлечения и сообщения об ошибках
Выбранный диапазон
Имя файла C:\MUSIC\IMAGE\CDImage.wav
Пиковый уровень 98.7 %
Качество диапазона 100.0 %
CRC 04666B52
Копирование... OK
Ошибок не произошло
Конец отчёта
-Особенности релиза:
Релиз представляет собой файл формата FLAC с внедренными метаданными.
Была "вшита" следующая информация: CUESheet, отчет EAC, обложка диска.
Для извлечения данных можно воспользоваться скриптом FLAC-extractor

инструкции по работе с FLAC-extractor

1. У Вас должен быть установлен пакет FLAC. Скачать его можно с сайта проекта FLAC.
2. Распакуйте содержимое архива FLAC-extractor.rar в папку с релизом.
3. Запустите FLAC-extractor.bat
Результатом работы скрипта станет появление файлов CUE, лога, сканов.
Те кому лень заморачиваться с FLAC-extractor CUEsheet найдут внутри спойлеров.-!!! Торрент обновлён 08.02.09 !!!

[Цитировать]



Показать сообщения:    

Текущее время: 10-Дек 04:13

Часовой пояс: UTC + 3


Вы не можете начинать темы
Вы не можете отвечать на сообщения
Вы не можете редактировать свои сообщения
Вы не можете удалять свои сообщения
Вы не можете голосовать в опросах
Вы не можете прикреплять файлы к сообщениям
Вы не можете скачивать файлы

!ВНИМАНИЕ!
Сайт не предоставляет электронные версии произведений, а занимается лишь коллекционированием и каталогизацией ссылок, присылаемых и публикуемых на форуме нашими читателями. Если вы являетесь правообладателем какого-либо представленного материала и не желаете, чтобы ссылка на него находилась в нашем каталоге, свяжитесь с нами, и мы незамедлительно удалим ее. Файлы для обмена на трекере предоставлены пользователями сайта, и администрация не несет ответственности за их содержание. Просьба не заливать файлы, защищенные авторскими правами, а также файлы нелегального содержания!