[ Сегодня идет свободное скачивание без начисления Download ]


Статистика раздачи
Нет
 
   
 
Top  
 
 
Супермозг / Le cerveau
Страна: Франция, Италия
Жанр: комедия, криминал
Год выпуска: 1969
Продолжительность: 01:54:35
Перевод: Профессиональный (двухголосый закадровый)
Cубтитры: русские, французские, английские
Оригинальная аудиодорожка: французский
Режиссер: Жерар Ури / Gerard Oury
В ролях: Жан-Поль Бельмондо, Бурвиль, Дэвид Нивен, Эли Уоллах, Сильвия Монти, Раймон Жером, Жак Балютен, Анри Атталь, Ив Барсак, Жак Сирон
Описание: Обаятельный мошенник Артур, с помощью друга бежавший из тюрьмы, решил ограбить спецвагон поезда Париж-Брюссель. В том же поезде находился знаменитый преступник «Супермозг», который тоже хотел заполучить миллионы, находящиеся в спецвагоне…
[imdb]tt0064146[/imdb] [kp]10892[/kp]
Доп. информация: за работу над дорогами благодарим Linger babe
Тип релиза: BDRemux 1080p | Le cerveau 1969 1080p FRA Blu-ray AVC DTS-HD MA 2.0-WiHD | sample
Контейнер: MKV
Видео кодек: x264
Видео: MPEG-4 AVC 1920x1080 (16:9), 24 fps, ~27.4 Mbps
Аудио #1: Russian AC3 2ch 48kHz 192Kbps | DVO
Аудио #2: French DTS-HD MA / 2.0 / 48 kHz / ~1579 kbps / 16-bit (DTS Core: 2.0 / 48 kHz / 1510 kbps / 16-bit) | Original
Формат субтитров: softsub (SRT)
Главы: есть

MediaInfo

General
Complete name : E:\...\Le.cerveau.1969.1080p.BDRemux.AVC.Rus.Fre.mkv
Format : Matroska
Format version : Version 4 / Version 2
File size : 23.4 GiB
Duration : 1h 54mn
Overall bit rate mode : Variable
Overall bit rate : 29.2 Mbps
Movie name : Le.cerveau.1969.1080p.BDRemux.AVC.Rus.Fre
Encoded date : UTC 2013-11-01 04:48:50
Writing application : mkvmerge v6.2.0 ('Promised Land') built on Apr 28 2013 12:22:01
Writing library : libebml v1.3.0 + libmatroska v1.4.0
Video
ID : 1
Format : AVC
Format/Info : Advanced Video Codec
Format profile : High@L4.1
Format settings, CABAC : Yes
Format settings, ReFrames : 2 frames
Codec ID : V_MPEG4/ISO/AVC
Duration : 1h 54mn
Bit rate mode : Variable
Bit rate : 26.9 Mbps
Maximum bit rate : 30.2 Mbps
Width : 1 920 pixels
Height : 1 080 pixels
Display aspect ratio : 16:9
Frame rate mode : Constant
Frame rate : 24.000 fps
Color space : YUV
Chroma subsampling : 4:2:0
Bit depth : 8 bits
Scan type : Progressive
Bits/(Pixel*Frame) : 0.540
Stream size : 21.5 GiB (92%)
Language : French
Default : No
Forced : No
Audio #1
ID : 2
Format : AC-3
Format/Info : Audio Coding 3
Mode extension : CM (complete main)
Format settings, Endianness : Big
Codec ID : A_AC3
Duration : 1h 54mn
Bit rate mode : Constant
Bit rate : 192 Kbps
Channel(s) : 2 channels
Channel positions : Front: L R
Sampling rate : 48.0 KHz
Bit depth : 16 bits
Compression mode : Lossy
Stream size : 157 MiB (1%)
Title : DVO
Language : Russian
Default : Yes
Forced : No
Audio #2
ID : 3
Format : DTS
Format/Info : Digital Theater Systems
Format profile : MA / Core
Codec ID : A_DTS
Duration : 1h 54mn
Bit rate mode : Variable
Bit rate : 1 558 Kbps / 1 510 Kbps
Channel(s) : 2 channels
Channel positions : Front: L R
Sampling rate : 48.0 KHz
Bit depth : 16 bits
Compression mode : Lossless / Lossy
Title : Original
Language : French
Default : No
Forced : No
Text #1
ID : 4
Format : UTF-8
Codec ID : S_TEXT/UTF8
Codec ID/Info : UTF-8 Plain Text
Language : Russian
Default : No
Forced : No
Text #2
ID : 5
Format : UTF-8
Codec ID : S_TEXT/UTF8
Codec ID/Info : UTF-8 Plain Text
Title : forced
Language : French
Default : No
Forced : No
Text #3
ID : 6
Format : UTF-8
Codec ID : S_TEXT/UTF8
Codec ID/Info : UTF-8 Plain Text
Language : French
Default : No
Forced : No
Text #4
ID : 7
Format : UTF-8
Codec ID : S_TEXT/UTF8
Codec ID/Info : UTF-8 Plain Text
Title : forced
Language : English
Default : No
Forced : No
Text #5
ID : 8
Format : UTF-8
Codec ID : S_TEXT/UTF8
Codec ID/Info : UTF-8 Plain Text
Language : English
Default : No
Forced : No
Menu
00:00:00.000 : en:00:00:00.000
00:08:19.750 : en:00:08:19.750
00:14:46.833 : en:00:14:46.833
00:21:58.500 : en:00:21:58.500
00:30:51.208 : en:00:30:51.208
00:40:49.542 : en:00:40:49.542
00:55:20.083 : en:00:55:20.083
01:03:34.250 : en:01:03:34.250
01:20:47.625 : en:01:20:47.625
01:27:21.000 : en:01:27:21.000
01:33:24.792 : en:01:33:24.792
01:51:09.083 : en:01:51:09.083

Скриншоты


[Цитировать]



Показать сообщения:    

Текущее время: 11-Дек 03:18

Часовой пояс: UTC + 3


Вы не можете начинать темы
Вы не можете отвечать на сообщения
Вы не можете редактировать свои сообщения
Вы не можете удалять свои сообщения
Вы не можете голосовать в опросах
Вы не можете прикреплять файлы к сообщениям
Вы не можете скачивать файлы

!ВНИМАНИЕ!
Сайт не предоставляет электронные версии произведений, а занимается лишь коллекционированием и каталогизацией ссылок, присылаемых и публикуемых на форуме нашими читателями. Если вы являетесь правообладателем какого-либо представленного материала и не желаете, чтобы ссылка на него находилась в нашем каталоге, свяжитесь с нами, и мы незамедлительно удалим ее. Файлы для обмена на трекере предоставлены пользователями сайта, и администрация не несет ответственности за их содержание. Просьба не заливать файлы, защищенные авторскими правами, а также файлы нелегального содержания!