[ Сегодня идет свободное скачивание без начисления Download ]


Статистика раздачи
Нет
 
   
 
Top  
 
 
-РЭД 2 / Red 2 (2013) HDRip
«Отдохнём на том свете»
- Год выпуска: 2013
Производство: США, Франция, Канада | Summit Entertainment, Di Bonaventura Pictures, DC Entertainment
Жанр: Боевик, Комедия
Перевод: Дублированный (Лицензия)
Субтитры: Вшитые отключаемые
Язык субтитров: Английский (Full, SDH)-Дата мировой премьеры: 18 июля 2013 (Греция, Израиль, Индонезия)
Дата российской премьеры: 1 августа 2013, «Централ Партнершип»
Дата выхода DVD релиза: 15 ноября 2013, «CD Land»
Дата выхода Blu-Ray релиза: 15 ноября 2013, «CD Land»-Режиссер: Дин Паризо-Продюсер: Лоренцо Ди Бонавентура, Марк Вахрадян, Рафаэль Бенолье-Актеры: Брюс Уиллис, Джон Малкович, Мэри-Луиз Паркер, Кэтрин Зета-Джонс, Ли Бён Хон, Энтони Хопкинс, Хелен Миррен, Брайан Кокс, Дэвид Тьюлис, Чжон Кон Ли, Нил МакДонаф, Гэррик Хэйгон, Тим Пиготт-Смит, Филип Ардитти, Митчелл Маллен ...-Роли дублировали: Владимир Герасимов, Леонид Белозорович, Ирина Киреева, Елена Соловьева, Даниил Эльдаров, Борис Быстров, Ирина Пономарева, Сергей Чихачев, Андрей Казанцев, Владислав Копп, Рудольф Панков, Владимир Левашёв ...-Описание фильма:
• Вышедший на пенсию тайный агент ЦРУ Фрэнк Мозес объединяется с командой старых друзей, элитных оперативников, с целью найти пропавшее оружие массового уничтожения. Чтобы его заполучить, придётся прорываться сквозь армии безжалостных наёмников, террористов и всегда жаждущих власти политиков.
• Миссия приводит Фрэнка и его разношёрстную команду вышедших на пенсию убийц в Париж, Лондон и Москву. В их арсенале есть только хитрость, старая сноровка и помощь друг друга, чтобы спасти мир и при этом самим остаться в живых.

Продолжительность: 01:55:48
Качество видео: HDRip
Видеокодек: MPEG-4 AVC/H.264
Битрейт видео: ~ 1930 Кбит/сек
Размер кадра: 1024 x 428 (2.393) at 23.976 fps : 0.184 Bits/Pixel
Аудио #1: AC3 384 Кбит/сек (6ch), 48,0 КГц, 16 бит [Русский, Дубляж]
Аудио #2: AC3 384 Кбит/сек (6ch), 48,0 КГц, 16 битт [Английский]
Дополнительно: Сохранены оригинальные чаптеры как на Blu-ray

Знаете ли вы, что...

• Интерьеры Кремля были созданы в одном из доков восточного Лондона. Здание, построенное в начале восемнадцатого века как хранилище табака, привезенного из Нового Света, в последние годы служило торговым центром, пока его не закрыли несколько лет назад. Подвальный этаж с кирпичными сводами идеально передал необходимую для этой сцены мрачную атмосферу.
• Большая часть парижских съемок пришлась на автомобильную погоню. Действие разворачивается на мосту, к востоку от Собора Парижской Богоматери. Старый «Ситроен» специально приспособили для того, чтобы он смог съехать по ступенькам прямо к Сене.
• Съемки продолжения начались 14 сентября 2012 года на Олимпийском стадионе Монреаля. Здание, законченное к летним Олимпийским играм 1976 года, как и многие многофункциональные стадионы, построенные в семидесятых, используется довольно редко. Его бетонные своды напоминают бункер, поэтому оно прекрасно подошло на роль секретного штаба МИ-6.
• Съемки в Монреале продолжались 14 дней, а среди натуры был особняк, изобразивший парижское обиталище Фрога. Он был построен в 1914 году архитектором Жаном-Омером Маршаном на Вуд-стрит, в модном районе Вестмаунт.
• На счету Брайана Кокса (1 фильм) и Энтони Хопкинса (3 фильма) роль Ганнибала Лектера в экранизациях романов Томаса Харриса: «Охотник на людей» (1986), «Молчание Ягнят» (1990), «Красный Дракон» (2002), «Ганнибал» (2001).

MediaInfo:

Полное имя                               : H:\BDRip'ы\РЭД 2  Red 2 (2013BDRipHDRip)\Red.2.2013.HDRip.h264.NNM-CLUB.GIU.mkv
Формат                                   : Matroska
Версия формата                           : Version 2
Размер файла                             : 2,18 Гбайт
Продолжительность                        : 1 ч. 55 м.
Общий поток                              : 2699 Кбит/сек
Название фильма                          : Red.2.2013.HDRip.h264.NNM-CLUB.GIU
Дата кодирования                         : UTC 2013-11-13 19:16:39
Программа кодирования                    : mkvmerge v2.9.9 ('Tutu') built on Nov 25 2009 21:13:32
Библиотека кодирования                   : libebml v0.7.9 + libmatroska v0.8.1
Видео
Идентификатор                            : 1
Формат                                   : AVC
Формат/Информация                        : Advanced Video Codec
Профиль формата                          : [url=mailto:[email protected]][email protected][/url]
Параметр CABAC формата                   : Да
Параметр ReFrames формата                : 10 кадров
Идентификатор кодека                     : V_MPEG4/ISO/AVC
Продолжительность                        : 1 ч. 55 м.
Битрейт                                  : 1930 Кбит/сек
Ширина                                   : 1024 пикселя
Высота                                   : 428 пикселей
Соотношение сторон                       : 2,40:1
Режим частоты кадров                     : Постоянный
Частота кадров                           : 23,976 кадра/сек
Цветовое пространство                    : YUV
Субдискретизация насыщенности            : 4:2:0
Битовая глубина                          : 8 бит
Тип развёртки                            : Прогрессивная
Бит/(Пиксели*Кадры)                      : 0.184
Размер потока                            : 1,52 Гбайт (70%)
Заголовок                                : -=Release for NNM-CLUB.RU=-
Библиотека кодирования                   : x264 core 133 r2334 a3ac64b
Настройки программы                      : cabac=1 / ref=10 / deblock=1:-3:-3 / analyse=0x3:0x113 / me=umh / subme=11 / psy=1 / psy_rd=1.00:0.25 / mixed_ref=0 / me_range=32 / chroma_me=1 / trellis=2 / 8x8dct=1 / cqm=0 / deadzone=21,11 / fast_pskip=1 / chroma_qp_offset=-4 / threads=12 / lookahead_threads=2 / sliced_threads=0 / nr=0 / decimate=0 / interlaced=0 / bluray_compat=0 / constrained_intra=0 / bframes=8 / b_pyramid=2 / b_adapt=2 / b_bias=0 / direct=3 / weightb=1 / open_gop=0 / weightp=2 / keyint=240 / keyint_min=23 / scenecut=40 / intra_refresh=0 / rc_lookahead=40 / rc=2pass / mbtree=1 / bitrate=1930 / ratetol=1.0 / qcomp=0.70 / qpmin=0 / qpmax=69 / qpstep=4 / cplxblur=20.0 / qblur=0.5 / vbv_maxrate=62500 / vbv_bufsize=78125 / nal_hrd=none / ip_ratio=1.40 / aq=1:1.00
Язык                                     : English
Default                                  : Да
Forced                                   : Нет
Аудио #1
Идентификатор                            : 2
Формат                                   : AC-3
Формат/Информация                        : Audio Coding 3
Расширение режима                        : CM (complete main)
Параметр Endianness формата              : Big
Идентификатор кодека                     : A_AC3
Продолжительность                        : 1 ч. 55 м.
Вид битрейта                             : Постоянный
Битрейт                                  : 384 Кбит/сек
Каналы                                   : 6 каналов
Расположение каналов                     : Front: L C R, Side: L R, LFE
Частота                                  : 48,0 КГц
Битовая глубина                          : 16 бит
Метод сжатия                             : С потерями
Размер потока                            : 318 Мбайт (14%)
Заголовок                                : AC3.384Kbps (6ch) Russian (Дубляж)
Язык                                     : Russian
Default                                  : Да
Forced                                   : Нет
Аудио #2
Идентификатор                            : 3
Формат                                   : AC-3
Формат/Информация                        : Audio Coding 3
Расширение режима                        : CM (complete main)
Параметр Endianness формата              : Big
Идентификатор кодека                     : A_AC3
Продолжительность                        : 1 ч. 55 м.
Вид битрейта                             : Постоянный
Битрейт                                  : 384 Кбит/сек
Каналы                                   : 6 каналов
Расположение каналов                     : Front: L C R, Side: L R, LFE
Частота                                  : 48,0 КГц
Битовая глубина                          : 16 бит
Метод сжатия                             : С потерями
Размер потока                            : 318 Мбайт (14%)
Заголовок                                : AC3.384Kbps (6ch) English
Язык                                     : English
Default                                  : Нет
Forced                                   : Нет
Текст #1
Идентификатор                            : 4
Формат                                   : UTF-8
Идентификатор кодека                     : S_TEXT/UTF8
Идентификатор кодека/Информация          : UTF-8 Plain Text
Заголовок                                : English (Full)
Язык                                     : English
Default                                  : Нет
Forced                                   : Нет
Текст #2
Идентификатор                            : 5
Формат                                   : UTF-8
Идентификатор кодека                     : S_TEXT/UTF8
Идентификатор кодека/Информация          : UTF-8 Plain Text
Заголовок                                : English (SDH)
Язык                                     : English
Default                                  : Нет
Forced                                   : Нет
Меню
00:00:00.000                             : en:00:00:00.000
00:08:31.094                             : en:00:08:31.094
00:15:02.193                             : en:00:15:02.193
00:21:30.497                             : en:00:21:30.497
00:28:33.337                             : en:00:28:33.337
00:39:50.888                             : en:00:39:50.888
00:47:24.425                             : en:00:47:24.425
00:54:32.561                             : en:00:54:32.561
01:00:21.326                             : en:01:00:21.326
01:07:47.021                             : en:01:07:47.021
01:11:48.804                             : en:01:11:48.804
01:18:52.770                             : en:01:18:52.770
01:23:16.283                             : en:01:23:16.283
01:28:01.067                             : en:01:28:01.067
01:35:52.455                             : en:01:35:52.455
01:41:44.306                             : en:01:41:44.306
01:45:24.026                             : en:01:45:24.026
01:46:59.913                             : en:01:46:59.913

x264 iNFO

x264 [info]: profile High, level 4.1
x264 [info]: frame I:2051 Avg QP:16.90 size: 77492
x264 [info]: frame P:41820 Avg QP:20.03 size: 18169
x264 [info]: frame B:122736 Avg QP:21.77 size: 6168
x264 [info]: consecutive B-frames: 3.2% 3.7% 15.0% 34.8% 14.3% 24.1% 2.3% 2.0% 0.4%
Скриншоты:


[Цитировать]

Топик был перенесен из форума Новинки кинопроката в форум Боевик
Henkok



Показать сообщения:    

Текущее время: 04-Дек 09:15

Часовой пояс: UTC + 3


Вы не можете начинать темы
Вы не можете отвечать на сообщения
Вы не можете редактировать свои сообщения
Вы не можете удалять свои сообщения
Вы не можете голосовать в опросах
Вы не можете прикреплять файлы к сообщениям
Вы не можете скачивать файлы

!ВНИМАНИЕ!
Сайт не предоставляет электронные версии произведений, а занимается лишь коллекционированием и каталогизацией ссылок, присылаемых и публикуемых на форуме нашими читателями. Если вы являетесь правообладателем какого-либо представленного материала и не желаете, чтобы ссылка на него находилась в нашем каталоге, свяжитесь с нами, и мы незамедлительно удалим ее. Файлы для обмена на трекере предоставлены пользователями сайта, и администрация не несет ответственности за их содержание. Просьба не заливать файлы, защищенные авторскими правами, а также файлы нелегального содержания!