[ Сегодня идет свободное скачивание без начисления Download ]


Статистика раздачи
Нет
 
   
 
Top  
 
 
-Cтрасти Дон Жуана / Don Jon (2013) DVDRip- Год выпуска: 2013
Производство: США, Voltage Pictures, HitRecord Films, Ram Bergman Productions
Жанр: Комедия, Мелодрама
Перевод: Дублированный | Лицензия |
Субтитры: Отсутствуют
Дата мировой премьеры: 18 января 2013
Дата российской премьеры: 26 сентября 2013, «Парадиз»
Дата выхода DVD релиза: 26 ноября 2013, «Парадиз / Активижен»
Режиссер: Джозеф Гордон-Левитт
Продюсер: Рэм Бергман, Николя Картье, Джефф Фрэнкс
Актеры: Джозеф Гордон-Левитт, Скарлетт Йоханссон, Джулианна Мур, Тони Данца, Гленн Хедли, Бри Ларсон, Роб Браун, Джереми Люк, Пол Бен-Виктор, Италиа Риччи
Описание фильма:
омичная история современного ловеласа, который из каждого любовного приключения вынужден спасаться бегством. Он еще не знает, что недалек тот час, когда ему все-таки придется остепениться.

Продолжительность: 01:26:07
Качество видео: DVDRip
Видеокодек: XviD
Битрейт видео: 998 kb/s
Размер кадра: 640x272
Аудиокодек: MP3, 2 ch
Битрейт аудио: 128 kb/s

MI

Общее
Полное имя                               : D:\Раздачи\Strasti.Don.Juana.2013.D.DVDRip.700MB.NNM-CLUB.avi
Формат                                   : AVI
Формат/Информация                        : Audio Video Interleave
Размер файла                             : 699 Мбайт
Продолжительность                        : 1 ч. 26 м.
Общий поток                              : 1135 Кбит/сек
Программа кодирования                    : VirtualDubMod 1.5.10.3 | (build 2550/release)
Библиотека кодирования                   : VirtualDubMod build 2550/release
Видео
Идентификатор                            : 0
Формат                                   : MPEG-4 Visual
Профиль формата                          : Advanced Simple@L5
Параметр BVOP формата                    : 1
Параметр QPel формата                    : Нет
Параметр GMC формата                     : Без точки перехода
Параметр матрицы формата                 : Default (MPEG)
Идентификатор кодека                     : XVID
Идентификатор кодека/Подсказка           : XviD
Продолжительность                        : 1 ч. 26 м.
Битрейт                                  : 998 Кбит/сек
Ширина                                   : 640 пикселей
Высота                                   : 272 пикселя
Соотношение сторон                       : 2,35:1
Частота кадров                           : 25,000 кадров/сек
Цветовое пространство                    : YUV
Субдискретизация насыщенности            : 4:2:0
Битовая глубина                          : 8 бит
Тип развёртки                            : Прогрессивная
Метод сжатия                             : С потерями
Бит/(Пиксели*Кадры)                      : 0.229
Размер потока                            : 615 Мбайт (88%)
Библиотека кодирования                   : XviD 73
Аудио
Идентификатор                            : 1
Формат                                   : MPEG Audio
Версия формата                           : Version 1
Профиль формата                          : Layer 3
Идентификатор кодека                     : 55
Идентификатор кодека/Подсказка           : MP3
Продолжительность                        : 1 ч. 26 м.
Вид битрейта                             : Постоянный
Битрейт                                  : 128 Кбит/сек
Каналы                                   : 2 канала
Частота                                  : 48,0 КГц
Метод сжатия                             : С потерями
Размер потока                            : 78,8 Мбайт (11%)
Выравнивание                             : Соединение по промежуткам
Продолжительность промежутка             : 40  мс. (1,00 видеокадр)
Время предзагрузки промежутка            : 504  мс.
Библиотека кодирования                   : LAME3.99r
Настройки программы                      : -m s -V 4 -q 2 -lowpass 17 -b 128
Скриншоты: Время раздачи: 24/7,
до 5 скачавших.

[Цитировать]

Топик был перенесен из форума Новинки кинопроката в форум Комедия
Henkok



Показать сообщения:    

Текущее время: 09-Дек 14:41

Часовой пояс: UTC + 3


Вы не можете начинать темы
Вы не можете отвечать на сообщения
Вы не можете редактировать свои сообщения
Вы не можете удалять свои сообщения
Вы не можете голосовать в опросах
Вы не можете прикреплять файлы к сообщениям
Вы не можете скачивать файлы

!ВНИМАНИЕ!
Сайт не предоставляет электронные версии произведений, а занимается лишь коллекционированием и каталогизацией ссылок, присылаемых и публикуемых на форуме нашими читателями. Если вы являетесь правообладателем какого-либо представленного материала и не желаете, чтобы ссылка на него находилась в нашем каталоге, свяжитесь с нами, и мы незамедлительно удалим ее. Файлы для обмена на трекере предоставлены пользователями сайта, и администрация не несет ответственности за их содержание. Просьба не заливать файлы, защищенные авторскими правами, а также файлы нелегального содержания!