[ Сегодня идет свободное скачивание без начисления Download ]


Статистика раздачи
Нет
 
   
 
Top  
 
 
-Тихоокеанский рубеж / Pacific Rim-Страна: США
Жанр: фантастика, боевик
Год выпуска: 2013
Продолжительность: 02:11:14-Перевод 1: Профессиональный (дублированный)
Перевод 2: Авторский (одноголосый закадровый) Юрий Сербин
Перевод 3: Авторский (одноголосый закадровый) Леонид Володарский
Cубтитры: Russian (Forced, iTunes), Russian (iTunes), Ukrainian (Forced, iTunes), Ukrainian (iTunes), English, English (SDH), English (SDH-COLORED)
Оригинальная аудиодорожка: английский-Режиссер: Гильермо дель Торо / Guillermo del Toro
В ролях: Чарли Ханнэм, Рон Перлман, Идрис Эльба, Диего Клаттенхофф, Чарли Дэй, Берн Горман, Клифтон Коллинз мл., Ринко Кикучи, Роберт Мэйллет, Макс Мартини-Описание: Когда из морских глубин поднялись легионы чудовищ, известных как Кайдзу, началась война, которой суждено было забрать миллионы жизней и свести «человеческие ресурсы» почти к нулю всего за несколько лет. Чтобы сражаться с пришельцами, было создано специальное оружие: огромные роботы, названные Джегерами, они управлялись одновременно двумя пилотами, чьи сознания соединены с помощью нейронной связи. Но даже Джегеры оказываются почти бессильны перед лицом безжалостных Кайдзу. На грани поражения у защитников человечества нет выбора, кроме как обратиться к двум весьма сомнительным героям — никому не нужному бывшему пилоту и неопытному стажеру — которые объединились, чтобы повести в бой некогда легендарного, но сейчас устаревшего Джегера. Вместе они оказываются единственной надеждой человечества, последним препятствием перед надвигающимся апокалипсисом.-Доп. информация:-Сэмпл: http://yadi.sk/d/TAp-OwDHCNuUG-Тип релиза: BDRip 720p
Контейнер: MKV
Видео: MPEG-4 AVC Video 8,500 Kbps 1280x720p / 23,976 fps / 16:9 / High Profile 4.1
Аудио 1: Dolby Digital Audio Russian 5.1 / 48 kHz / 640 kbps | Дубляж
Аудио 2: Dolby Digital Audio Ukrainian 5.1 / 48 kHz / 640 kbps | Дубляж
Аудио 3: DTS Audio Russian 5.1 / 48 kHz / 1509 kbps / 16-bit | Ю.Сербин
Аудио 4: Dolby Digital Audio Russian 5.1 / 48 kHz / 448 kbps | Л.Володарский
Аудио 5: DTS Audio English 5.1 / 48 kHz / 1509 kbps / 16-bit
Аудио 6: Dolby Digital Audio English 2.0 / 48 kHz / 192 kbps | Commentary By Guillermo Del Toro
Формат субтитров: softsub (SRT)

Видеоряд от DON

Pacific.Rim.2013.720p.BluRay.DTS.x264-DON
[Technical Information]:
RUNTiME.......: 02h:11m:17sSiZE..........: 09.23 GBVIDEO CODEC...: x264, 2pass, L4.1FRAMERATE.....: 23.976 fpsBITRATE.......: ~8,500 KbpsRESOLUTION....: 1280x720AUDiO1........: English DTS 5.1 @ 1510 KbpsAUDiO2........: English AAC q=0.25 (Commentary with Directors: Guillerme Del Toro)SUBTITLES.....: EN [SDH] | EN | SPA | FRE | CZE | DUT | BOS | TUR | SLO | ROM | POR-BRSOURCE........: Blu-ray AVC DTS-HD MA 7.1-PENiS (thx hz101!)
ENCODER.......: V90RELEASE DATE..: 19/10/2013Source | DON - 5.4k bitrate | SPARKS | DON - 8.5k



MI

General
Complete name                    : X:\Temp\+ HDCHina\Pacific.Rim.2013.1080p.BluRay.x264.DTS-HD.MA.7.1-HDWinG\Pacific.Rim.2013.720p.BluRay.DTS.3xRus.Ukr.2xEng.HDCLUB.mkv
Format                           : Matroska
File size                        : 12.3 GiB
Duration                         : 2h 11mn
Overall bit rate                 : 13.4 Mbps
Movie name                       : Pacific Rim (2013) - Release for HDCLUB
Encoded date                     : UTC 2013-11-07 22:41:52
Writing application              : mkvmerge v3.4.0 ('Rapunzel') built on May 15 2010 09:38:20
Writing library                  : libebml v0.8.0 + libmatroska v0.9.0
Video
ID                               : 1
Format                           : AVC
Format/Info                      : Advanced Video Codec
Format profile                   : High@L4.1
Format settings, CABAC           : Yes
Format settings, ReFrames        : 9 frames
Muxing mode                      : Container profile=Unknown@4.1
Codec ID                         : V_MPEG4/ISO/AVC
Duration                         : 2h 11mn
Bit rate                         : 8 500 Kbps
Width                            : 1 280 pixels
Height                           : 720 pixels
Display aspect ratio             : 16:9
Frame rate                       : 23.976 fps
Color space                      : YUV
Chroma subsampling               : 4:2:0
Bit depth                        : 8 bits
Scan type                        : Progressive
Bits/(Pixel*Frame)               : 0.385
Stream size                      : 7.55 GiB (61%)
Title                            : Pacific Rim (2013) - Release for HDCLUB
Writing library                  : x264 core 138 r2358kMod 9e941d1
Encoding settings                : cabac=1 / ref=9 / deblock=1:-2:-2 / analyse=0x3:0x133 / me=tesa / subme=9 / psy=1 / fade_compensate=0.00 / psy_rd=1.08:0.05 / mixed_ref=1 / me_range=32 / chroma_me=1 / trellis=2 / 8x8dct=1 / cqm=0 / deadzone=21,11 / fast_pskip=0 / chroma_qp_offset=-3 / threads=12 / lookahead_threads=2 / sliced_threads=0 / nr=0 / decimate=0 / interlaced=0 / bluray_compat=0 / constrained_intra=0 / bframes=7 / b_pyramid=2 / b_adapt=2 / b_bias=0 / direct=1 / weightb=1 / open_gop=0 / weightp=2 / keyint=250 / keyint_min=23 / scenecut=40 / intra_refresh=0 / rc_lookahead=40 / rc=2pass / mbtree=0 / bitrate=8500 / ratetol=1.0 / qcomp=0.75 / qpmin=0 / qpmax=50 / qpstep=4 / cplxblur=20.0 / qblur=0.5 / vbv_maxrate=50000 / vbv_bufsize=50000 / nal_hrd=none / ip_ratio=1.30 / pb_ratio=1.20 / aq=1:0.90
Language                         : English
Audio #1
ID                               : 2
Format                           : AC-3
Format/Info                      : Audio Coding 3
Mode extension                   : CM (complete main)
Codec ID                         : A_AC3
Duration                         : 2h 11mn
Bit rate mode                    : Constant
Bit rate                         : 640 Kbps
Channel(s)                       : 6 channels
Channel positions                : Front: L C R, Side: L R, LFE
Sampling rate                    : 48.0 KHz
Bit depth                        : 16 bits
Stream size                      : 601 MiB (5%)
Title                            : AC3 5.1 @ 640 kbps - DUB, Blu-ray CEE
Language                         : Russian
Audio #2
ID                               : 3
Format                           : AC-3
Format/Info                      : Audio Coding 3
Mode extension                   : CM (complete main)
Codec ID                         : A_AC3
Duration                         : 2h 11mn
Bit rate mode                    : Constant
Bit rate                         : 640 Kbps
Channel(s)                       : 6 channels
Channel positions                : Front: L C R, Side: L R, LFE
Sampling rate                    : 48.0 KHz
Bit depth                        : 16 bits
Stream size                      : 601 MiB (5%)
Title                            : AC3 5.1 @ 640 kbps - DUB, Blu-ray CEE
Language                         : Ukrainian
Audio #3
ID                               : 4
Format                           : DTS
Format/Info                      : Digital Theater Systems
Codec ID                         : A_DTS
Duration                         : 2h 11mn
Bit rate mode                    : Constant
Bit rate                         : 1 510 Kbps
Channel(s)                       : 6 channels
Channel positions                : Front: L C R, Side: L R, LFE
Sampling rate                    : 48.0 KHz
Bit depth                        : 24 bits
Stream size                      : 1.38 GiB (11%)
Title                            : DTS 5.1 @ 1536 kbps - AVO, Y.Serbin
Language                         : Russian
Audio #4
ID                               : 5
Format                           : AC-3
Format/Info                      : Audio Coding 3
Mode extension                   : CM (complete main)
Codec ID                         : A_AC3
Duration                         : 2h 11mn
Bit rate mode                    : Constant
Bit rate                         : 448 Kbps
Channel(s)                       : 6 channels
Channel positions                : Front: L C R, Side: L R, LFE
Sampling rate                    : 48.0 KHz
Bit depth                        : 16 bits
Stream size                      : 421 MiB (3%)
Title                            : AC3 5.1 @ 448 kbps - AVO, L.Volodarsky
Language                         : Russian
Audio #5
ID                               : 6
Format                           : DTS
Format/Info                      : Digital Theater Systems
Codec ID                         : A_DTS
Duration                         : 2h 11mn
Bit rate mode                    : Constant
Bit rate                         : 1 510 Kbps
Channel(s)                       : 6 channels
Channel positions                : Front: L C R, Side: L R, LFE
Sampling rate                    : 48.0 KHz
Bit depth                        : 24 bits
Stream size                      : 1.38 GiB (11%)
Title                            : DTS 5.1 @ 1536 kbps
Language                         : English
Audio #6
ID                               : 7
Format                           : AC-3
Format/Info                      : Audio Coding 3
Format profile                   : Dolby Digital
Mode extension                   : CM (complete main)
Codec ID                         : A_AC3
Duration                         : 2h 11mn
Bit rate mode                    : Constant
Bit rate                         : 192 Kbps
Channel(s)                       : 2 channels
Channel positions                : Front: L R
Sampling rate                    : 48.0 KHz
Bit depth                        : 16 bits
Stream size                      : 180 MiB (1%)
Title                            : AC3 2.0 @ 192 kbps - Commentary By Guillermo Del Toro
Language                         : English
Text #1
ID                               : 8
Format                           : UTF-8
Codec ID                         : S_TEXT/UTF8
Codec ID/Info                    : UTF-8 Plain Text
Title                            : Forced, iTunes
Language                         : Russian
Text #2
ID                               : 9
Format                           : UTF-8
Codec ID                         : S_TEXT/UTF8
Codec ID/Info                    : UTF-8 Plain Text
Title                            : iTunes
Language                         : Russian
Text #3
ID                               : 10
Format                           : UTF-8
Codec ID                         : S_TEXT/UTF8
Codec ID/Info                    : UTF-8 Plain Text
Title                            : Forced, iTunes
Language                         : Ukrainian
Text #4
ID                               : 11
Format                           : UTF-8
Codec ID                         : S_TEXT/UTF8
Codec ID/Info                    : UTF-8 Plain Text
Title                            : iTunes
Language                         : Ukrainian
Text #5
ID                               : 12
Format                           : UTF-8
Codec ID                         : S_TEXT/UTF8
Codec ID/Info                    : UTF-8 Plain Text
Language                         : English
Text #6
ID                               : 13
Format                           : UTF-8
Codec ID                         : S_TEXT/UTF8
Codec ID/Info                    : UTF-8 Plain Text
Title                            : SDH
Language                         : English
Text #7
ID                               : 14
Format                           : UTF-8
Codec ID                         : S_TEXT/UTF8
Codec ID/Info                    : UTF-8 Plain Text
Title                            : SDH-COLORED
Language                         : English
Menu
00:00:00.000                     : en:00:00:00.000
00:09:09.132                     : en:00:09:09.132
00:18:35.823                     : en:00:18:35.823
00:23:04.341                     : en:00:23:04.341
00:33:00.395                     : en:00:33:00.395
00:42:44.896                     : en:00:42:44.896
00:50:01.665                     : en:00:50:01.665
01:01:09.666                     : en:01:01:09.666
01:14:45.106                     : en:01:14:45.106
01:22:21.311                     : en:01:22:21.311
01:32:09.941                     : en:01:32:09.941
01:41:55.609                     : en:01:41:55.609
01:51:37.858                     : en:01:51:37.858
01:59:21.029                     : en:01:59:21.029
02:02:17.830                     : en:02:02:17.830

Скриншоты


[Цитировать]

Топик был перенесен из форума Новинки кинопроката (HD Video) в форум Зарубежное кино (HD Video)
Bootch



Показать сообщения:    

Текущее время: 10-Дек 21:39

Часовой пояс: UTC + 3


Вы не можете начинать темы
Вы не можете отвечать на сообщения
Вы не можете редактировать свои сообщения
Вы не можете удалять свои сообщения
Вы не можете голосовать в опросах
Вы не можете прикреплять файлы к сообщениям
Вы не можете скачивать файлы

!ВНИМАНИЕ!
Сайт не предоставляет электронные версии произведений, а занимается лишь коллекционированием и каталогизацией ссылок, присылаемых и публикуемых на форуме нашими читателями. Если вы являетесь правообладателем какого-либо представленного материала и не желаете, чтобы ссылка на него находилась в нашем каталоге, свяжитесь с нами, и мы незамедлительно удалим ее. Файлы для обмена на трекере предоставлены пользователями сайта, и администрация не несет ответственности за их содержание. Просьба не заливать файлы, защищенные авторскими правами, а также файлы нелегального содержания!