[ Today is free to download without increasing Download ]

DL-List and Torrent activity
-Имоджен / Girl Most Likely (2012) DVDRip
«She has a lot to live up to. And a few things to live down»»
- Год выпуска: 2012
Производство: США | Maven Pictures, Anonymous Content, Ambush Entertainment
Жанр: Комедия
Перевод: Многоголосый закадровый, профессиональный (Лицензия)
Субтитры: Отсутствуют-Дата мировой премьеры: 7 сентября 2012 (Канада, Международный кинофестиваль в Торонто)
Дата выхода DVD релиза: 12 ноября 2013, «Парадиз / Активижен»-Режиссер: Шари Спрингер Берман, Роберт Пульчини-Продюсер: Марк Эмин, Аликс Мэдигэн, Селин Рэттрэй-Актеры: Кристен Уиг, Аннетт Бенинг, Мэтт Диллон, Даррен Крисс, Кристофер Фицджералд, Джун Рафаэль, Наташа Лионн, Боб Бэлабан, Сидни Лукас, Джимми Палумбо ...-Описание фильма:
Это история успешной нью-йоркской писательницы, которая изображает попытку самоубийства для того, чтобы вернуть экс-бойфренда.-
Продолжительность: 01:38:54
Качество видео: DVDRip
Видеокодек: Xvid
Битрейт видео: ~ 1716 Кбит/сек
Размер кадра: 720 x 400 (1.800) at 25.000 fps
Аудиокодек: AC3 5.1
Битрейт аудио: 384 Кбит/сек, 48,0 КГц


Полное имя                               : G:\Фильмы 2013\Имоджен  Girl Most Likely (2012) DVDRip-AVC\Imodjen.2012.P.DVDRip.NNM-CLUB.avi
Формат                                   : AVI
Формат/Информация                        : Audio Video Interleave
Размер файла                             : 1,46 Гбайт
Продолжительность                        : 1 ч. 38 м.
Общий поток                              : 2109 Кбит/сек
Программа кодирования                    : VirtualDubMod | [url=http://www.virtualdub-fr.org]www.virtualdub-fr.org[/url] || (build 2550/release)
Библиотека кодирования                   : VirtualDubMod build 2550/release
Идентификатор                            : 0
Формат                                   : MPEG-4 Visual
Профиль формата                          : Advanced Simple@L5
Параметр BVOP формата                    : 1
Параметр QPel формата                    : Нет
Параметр GMC формата                     : Без точки перехода
Параметр матрицы формата                 : Выборочная
Идентификатор кодека                     : XVID
Идентификатор кодека/Подсказка           : XviD
Продолжительность                        : 1 ч. 38 м.
Битрейт                                  : 1716 Кбит/сек
Ширина                                   : 720 пикселей
Высота                                   : 400 пикселей
Соотношение сторон                       : 16:9
Частота кадров                           : 25,000 кадров/сек
Цветовое пространство                    : YUV
Субдискретизация насыщенности            : 4:2:0
Битовая глубина                          : 8 бит
Тип развёртки                            : Прогрессивная
Метод сжатия                             : С потерями
Бит/(Пиксели*Кадры)                      : 0.238
Размер потока                            : 1,19 Гбайт (81%)
Библиотека кодирования                   : XviD 73
Идентификатор                            : 1
Формат                                   : AC-3
Формат/Информация                        : Audio Coding 3
Расширение режима                        : CM (complete main)
Параметр Endianness формата              : Big
Идентификатор кодека                     : 2000
Продолжительность                        : 1 ч. 38 м.
Вид битрейта                             : Постоянный
Битрейт                                  : 384 Кбит/сек
Каналы                                   : 6 каналов
Расположение каналов                     : Front: L C R, Side: L R, LFE
Частота                                  : 48,0 КГц
Битовая глубина                          : 16 бит
Метод сжатия                             : С потерями
Размер потока                            : 272 Мбайт (18%)
Выравнивание                             : Разделение по промежуткам
Продолжительность промежутка             : 40  мс. (1,00 видеокадр)
Время предзагрузки промежутка            : 500  мс.


Display posts:    

Current time is: 23-Oct 10:56

All times are UTC + 3

You cannot post new topics in this forum
You cannot reply to topics in this forum
You cannot edit your posts in this forum
You cannot delete your posts in this forum
You cannot vote in polls in this forum
You cannot attach files in this forum
You cannot download files in this forum

The site does not give electronic versions of products, and is engaged only in a collecting and cataloguing of the references sent and published at a forum by our readers. If you are the legal owner of any submitted material and do not wish that the reference to it was in our catalogue, contact us and we shall immediately remove her. Files for an exchange on tracker are given by users of a site, and the administration does not bear the responsibility for their maintenance. The request to not fill in the files protected by copyrights, and also files of the illegal maintenance!