[ Сегодня идет свободное скачивание без начисления Download ]


Статистика раздачи
Нет
 
   
 
Top  
 
 
-Тачки 2 / Cars 2 (2011) BDRip- Год выпуска: 2011
Жанр: Мультфильм, Боевик, Триллер, Комедия, Приключения, Семейный
Описание:
Молния МакКуин и его друг Мэтр отправляются в международное путешествие — когда МакКуин получает шанс участвовать в соревнованиях для самых быстрых машин в мире, Мировом Гран-При. Этапы этих престижных гонок заведут друзей в Токио, на набережные Парижа, на побережье Италии, и на улицы туманного Лондона.-
Режиссер: Джон Лассетер, Брэд Льюис
Персонажи: Оуэн Уилсон, Ларри Кейбл, Гай Майкл Кейн, Эмили Мортимер, Эдди Иззард, Джон Туртурро, Брент Мусбургер, Джо Мантенья, Томас Кречманн, Питер Джекобсон
Роли дублировали: Дмитрий Харатьян, Сергей Кузнецов, Леонид Каневский, Жанна Фриске, Леонид Ярмольник ...
Продолжительность: 01:47:01
Качество видео: BDRip
Перевод: Дублированный
Видеокодек: MPEG-4 AVC/H.264
Битрейт видео: ~12,7 Мбит/сек
Размер кадра: 1920x1600
Аудио №1: AC3 5.1 640 kbps - Русский
Аудио №2: AC3 5.1 640 kbps - Украинский
Аудио №3: AC3 5.1 640 kbps - Английский-

Media info:

Общее
Уникальный идентификатор : 176262131148228923334281182742030111207 (0x849ADA055726199E9DA9C9F92304D1E7)
Полное имя : D:\Full 3Drip\CARS2_3D.mkv
Формат : Matroska
Версия формата : Version 2
Размер файла : 11,1 Гбайт
Продолжительность : 1 ч. 47 м.
Общий поток : 14,9 Мбит/сек
Название фильма : CARS2_3D_FULL_O/U
Дата кодирования : UTC 2013-11-11 16:24:29
Программа кодирования : mkvmerge v5.7.0 ('The Whirlwind') built on Aug 7 2012 14:11:40
Библиотека кодирования : libebml v1.2.3 + libmatroska v1.3.0
Видео
Идентификатор : 1
Формат : AVC
Формат/Информация : Advanced Video Codec
Профиль формата : High@L5.1
Параметр CABAC формата : Да
Параметр ReFrames формата : 6 кадров
Идентификатор кодека : V_MPEG4/ISO/AVC
Продолжительность : 1 ч. 47 м.
Битрейт : 12,7 Мбит/сек
Ширина : 1920 пикселей
Высота : 1600 пикселей
Соотношение сторон : 1,200
Соотношение сторон в оригинале : 16:9
Режим частоты кадров : Постоянный
Частота кадров : 23,976 кадра/сек
Цветовое пространство : YUV
Субдискретизация насыщенности : 4:2:0
Битовая глубина : 8 бит
Тип развёртки : Прогрессивная
Бит/(Пиксели*Кадры) : 0.172
Размер потока : 9,49 Гбайт (85%)
Заголовок : rip by I/N
Библиотека кодирования : x264 core 128 r2216M 198a7ea
Настройки программы : cabac=1 / ref=6 / deblock=1:-1:-1 / analyse=0x3:0x133 / me=esa / subme=10 / psy=1 / psy_rd=1.00:0.15 / mixed_ref=1 / me_range=24 / chroma_me=1 / trellis=2 / 8x8dct=1 / cqm=0 / deadzone=21,11 / fast_pskip=1 / chroma_qp_offset=-3 / threads=8 / lookahead_threads=1 / sliced_threads=0 / nr=0 / decimate=1 / interlaced=0 / bluray_compat=0 / constrained_intra=0 / bframes=8 / b_pyramid=2 / b_adapt=2 / b_bias=0 / direct=3 / weightb=1 / open_gop=0 / weightp=2 / keyint=230 / keyint_min=23 / scenecut=40 / intra_refresh=0 / rc_lookahead=60 / rc=crf / mbtree=1 / crf=18.0 / qcomp=0.60 / qpmin=0 / qpmax=69 / qpstep=4 / ip_ratio=1.40 / aq=1:1.00
Default : Да
Forced : Нет
Аудио #1
Идентификатор : 2
Формат : AC-3
Формат/Информация : Audio Coding 3
Расширение режима : CM (complete main)
Параметр Endianness формата : Big
Идентификатор кодека : A_AC3
Продолжительность : 1 ч. 47 м.
Вид битрейта : Постоянный
Битрейт : 640 Кбит/сек
Каналы : 6 каналов
Расположение каналов : Front: L C R, Side: L R, LFE
Частота : 48,0 КГц
Битовая глубина : 16 бит
Метод сжатия : С потерями
Размер потока : 490 Мбайт (4%)
Заголовок : Дубляж
Язык : Russian
Default : Да
Forced : Нет
Аудио #2
Идентификатор : 3
Формат : AC-3
Формат/Информация : Audio Coding 3
Расширение режима : CM (complete main)
Параметр Endianness формата : Big
Идентификатор кодека : A_AC3
Продолжительность : 1 ч. 47 м.
Вид битрейта : Постоянный
Битрейт : 640 Кбит/сек
Каналы : 6 каналов
Расположение каналов : Front: L C R, Side: L R, LFE
Частота : 48,0 КГц
Битовая глубина : 16 бит
Метод сжатия : С потерями
Размер потока : 490 Мбайт (4%)
Заголовок : Дубляж
Язык : Ukrainian
Default : Нет
Forced : Нет
Аудио #3
Идентификатор : 4
Формат : AC-3
Формат/Информация : Audio Coding 3
Расширение режима : CM (complete main)
Параметр Endianness формата : Big
Идентификатор кодека : A_AC3
Продолжительность : 1 ч. 47 м.
Вид битрейта : Постоянный
Битрейт : 640 Кбит/сек
Каналы : 6 каналов
Расположение каналов : Front: L C R, Side: L R, LFE
Частота : 48,0 КГц
Битовая глубина : 16 бит
Метод сжатия : С потерями
Размер потока : 490 Мбайт (4%)
Заголовок : Original
Язык : English
Default : Нет
Forced : Нет
Меню
00:00:00.000 : en:(01)00:00:00:000
00:01:29.172 : en:(02)00:01:29:172
00:04:47.578 : en:(03)00:04:47:578
00:07:43.671 : en:(04)00:07:43:671
00:12:07.893 : en:(05)00:12:07:893
00:17:48.942 : en:(06)00:17:48:942
00:20:01.325 : en:(07)00:20:01:325
00:22:51.536 : en:(08)00:22:51:536
00:26:34.634 : en:(09)00:26:34:634
00:30:30.161 : en:(10)00:30:30:161
00:32:41.960 : en:(11)00:32:41:960
00:34:13.509 : en:(12)00:34:13:509
00:37:15.566 : en:(13)00:37:15:566
00:40:44.150 : en:(14)00:40:44:150
00:42:53.153 : en:(15)00:42:53:153
00:46:18.567 : en:(16)00:46:18:567
00:46:57.940 : en:(17)00:46:57:940
00:49:48.527 : en:(18)00:49:48:527
00:53:56.399 : en:(19)00:53:56:399
00:54:57.252 : en:(20)00:54:57:252
00:57:36.202 : en:(21)00:57:36:202
00:59:27.730 : en:(22)00:59:27:730
01:02:16.941 : en:(23)01:02:16:941
01:05:56.285 : en:(24)01:05:56:285
01:12:31.764 : en:(25)01:12:31:764
01:14:05.899 : en:(26)01:14:05:899
01:15:24.186 : en:(27)01:15:24:186
01:21:12.993 : en:(28)01:21:12:993
01:23:22.247 : en:(29)01:23:22:247
01:29:06.924 : en:(30)01:29:06:924
01:31:48.127 : en:(31)01:31:48:127
01:32:41.222 : en:(32)01:32:41:222
01:38:18.601 : en:(33)01:38:18:601
01:47:01.248 : en:(34)01:47:01:248

Особенности релиза:

Рип сделан в формате 16:9 - специально для корректного воспроизведения 3Dсофт-плеерами сразу в полный экран.
Воспроизведение проверенно: Arcsoft TMT5,6 и Cyberlink PowerDVD12,13
Всем приятного просмотра!
На встроенных ТВ-плейерах показывать НЕ будет!!!Скриншоты:

[Цитировать]



Показать сообщения:    

Текущее время: 07-Дек 17:20

Часовой пояс: UTC + 3


Вы не можете начинать темы
Вы не можете отвечать на сообщения
Вы не можете редактировать свои сообщения
Вы не можете удалять свои сообщения
Вы не можете голосовать в опросах
Вы не можете прикреплять файлы к сообщениям
Вы не можете скачивать файлы

!ВНИМАНИЕ!
Сайт не предоставляет электронные версии произведений, а занимается лишь коллекционированием и каталогизацией ссылок, присылаемых и публикуемых на форуме нашими читателями. Если вы являетесь правообладателем какого-либо представленного материала и не желаете, чтобы ссылка на него находилась в нашем каталоге, свяжитесь с нами, и мы незамедлительно удалим ее. Файлы для обмена на трекере предоставлены пользователями сайта, и администрация не несет ответственности за их содержание. Просьба не заливать файлы, защищенные авторскими правами, а также файлы нелегального содержания!