[ Сегодня идет свободное скачивание без начисления Download ]


Статистика раздачи
Нет
 
   
 
Top  
 
 
-Самолеты / Planes (2013) BDRip«В небе, под которым живут Тачки»- Год выпуска: 2013
Жанр: Мультфильм, Комедия, Приключения, Семейный
Описание:
Дасти Полейполе — скромный трудяга-самолет, работающий сельскохозяйственным распылителем на заштатном провинциальном аэродроме. Однако это не мешает ему мечтать о том, чтобы однажды принять участие в кругосветных гонках самых быстрых самолетов. Одна незадача — Дасти панически боится большой высоты. Поэтому, когда волею случая он все же попадает в число участников отборочного тура воздушных соревнований, ему приходится искать помощи у ветерана военно-морской авиации, отставного истребителя Шкипера. С помощью мудрого наставника Дасти сможет преодолеть свои слабости и бросить вызов надменному чемпиону Рипслингеру, а весь мир будет с замиранием сердца следить за гонкой в небесах!..-
Дата мировой премьеры: 5 августа 2013
Дата российской премьеры: 29 августа 2013, «WDSSPR»
Дата выхода DVD релиза: 17 декабря 2013, «Уолт Дисней Компани СНГ»
Дата выхода Blu-Ray релиза: 17 декабря 2013, «Уолт Дисней Компани СНГ»-Режиссер: Клэй Холл
Персонажи: Дейн Кук, Стейси Кич, Брэд Гэррет, Тери Хэтчер, Джулия Луис-Дрейфус, Приянка Чопра, Джон Клиз, Седрик «Развлекатель», Карлос Аласраки, Роджер Крэйг Смит
Продолжительность: 01:31:35
Качество видео: BDRip
Перевод: Дублированный (Чистый звук)
Видеокодек: MPEG-4 AVC/H.264
Битрейт видео: ~15,0 Мбит/сек
Размер кадра: 1920x2160
Аудио 1: AC3 5.1, 448 kbps, 48 kHz [Русский -Дублированный]
Аудио 2: AC3 5.1, 640 kbps, 48 kHz [Английский]-

Media info:

Общее
Уникальный идентификатор : 249841753790949860601328293595080032424 (0xBBF5C580EBA8A143A35A070EED0C00A8)
Полное имя : D:\Full 3Drip\PLANES_3D.mkv
Формат : Matroska
Версия формата : Version 2
Размер файла : 10,5 Гбайт
Продолжительность : 1 ч. 31 м.
Общий поток : 16,4 Мбит/сек
Название фильма : PLANES_3D_FULL_O/U
Дата кодирования : UTC 2013-11-07 13:46:20
Программа кодирования : mkvmerge v5.7.0 ('The Whirlwind') built on Aug 7 2012 14:11:40
Библиотека кодирования : libebml v1.2.3 + libmatroska v1.3.0
Видео
Идентификатор : 1
Формат : AVC
Формат/Информация : Advanced Video Codec
Профиль формата : [email protected]
Параметр CABAC формата : Да
Параметр ReFrames формата : 6 кадров
Идентификатор кодека : V_MPEG4/ISO/AVC
Продолжительность : 1 ч. 31 м.
Битрейт : 15,0 Мбит/сек
Ширина : 1920 пикселей
Высота : 2160 пикселей
Соотношение сторон : 0,889
Режим частоты кадров : Постоянный
Частота кадров : 23,976 кадра/сек
Цветовое пространство : YUV
Субдискретизация насыщенности : 4:2:0
Битовая глубина : 8 бит
Тип развёртки : Прогрессивная
Бит/(Пиксели*Кадры) : 0.151
Размер потока : 9,59 Гбайт (91%)
Заголовок : rip by I/N
Библиотека кодирования : x264 core 128 r2216M 198a7ea
Настройки программы : cabac=1 / ref=6 / deblock=1:-1:-1 / analyse=0x3:0x133 / me=esa / subme=10 / psy=1 / psy_rd=1.00:0.15 / mixed_ref=1 / me_range=24 / chroma_me=1 / trellis=2 / 8x8dct=1 / cqm=0 / deadzone=21,11 / fast_pskip=1 / chroma_qp_offset=-3 / threads=8 / lookahead_threads=1 / sliced_threads=0 / nr=0 / decimate=1 / interlaced=0 / bluray_compat=0 / constrained_intra=0 / bframes=8 / b_pyramid=2 / b_adapt=2 / b_bias=0 / direct=3 / weightb=1 / open_gop=0 / weightp=2 / keyint=230 / keyint_min=23 / scenecut=40 / intra_refresh=0 / rc_lookahead=60 / rc=crf / mbtree=1 / crf=18.0 / qcomp=0.60 / qpmin=0 / qpmax=69 / qpstep=4 / ip_ratio=1.40 / aq=1:1.00
Default : Да
Forced : Нет
Аудио #1
Идентификатор : 2
Формат : AC-3
Формат/Информация : Audio Coding 3
Расширение режима : CM (complete main)
Параметр Endianness формата : Big
Идентификатор кодека : A_AC3
Продолжительность : 1 ч. 31 м.
Вид битрейта : Постоянный
Битрейт : 448 Кбит/сек
Каналы : 6 каналов
Расположение каналов : Front: L C R, Side: L R, LFE
Частота : 48,0 КГц
Битовая глубина : 16 бит
Метод сжатия : С потерями
Размер потока : 293 Мбайт (3%)
Заголовок : Дубляж [Line]
Язык : Russian
Default : Да
Forced : Нет
Аудио #2
Идентификатор : 3
Формат : AC-3
Формат/Информация : Audio Coding 3
Расширение режима : CM (complete main)
Параметр Endianness формата : Big
Идентификатор кодека : A_AC3
Продолжительность : 1 ч. 31 м.
Вид битрейта : Постоянный
Битрейт : 640 Кбит/сек
Каналы : 6 каналов
Расположение каналов : Front: L C R, Side: L R, LFE
Частота : 48,0 КГц
Битовая глубина : 16 бит
Метод сжатия : С потерями
Размер потока : 419 Мбайт (4%)
Заголовок : Original
Язык : English
Default : Нет
Forced : Нет
Меню
00:00:00.000 : en:(01)00:00:00:000
00:04:41.990 : en:(02)00:04:41:990
00:07:23.234 : en:(03)00:07:23:234
00:09:04.293 : en:(04)00:09:04:293
00:14:38.085 : en:(05)00:14:38:085
00:17:30.549 : en:(06)00:17:30:549
00:24:58.872 : en:(07)00:24:58:872
00:30:10.767 : en:(08)00:30:10:767
00:36:28.185 : en:(09)00:36:28:185
00:40:37.517 : en:(10)00:40:37:517
00:42:51.193 : en:(11)00:42:51:193
00:48:07.801 : en:(12)00:48:07:801
00:51:37.802 : en:(13)00:51:37:802
00:56:22.378 : en:(14)00:56:22:378
01:00:06.143 : en:(15)01:00:06:143
01:01:59.923 : en:(16)01:01:59:923
01:07:05.312 : en:(17)01:07:05:312
01:10:13.041 : en:(18)01:10:13:041
01:12:27.133 : en:(19)01:12:27:133
01:16:26.914 : en:(20)01:16:26:914
01:31:34.029 : en:(21)01:31:34:029
На встроенных ТВ-плейерах показывать НЕ будет!!!Скриншоты:

[Цитировать]

Топик был перенесен из форума Новинки кинопроката в форум 3D Мультфильмы
Henkok



Показать сообщения:    

Текущее время: 04-Дек 11:16

Часовой пояс: UTC + 3


Вы не можете начинать темы
Вы не можете отвечать на сообщения
Вы не можете редактировать свои сообщения
Вы не можете удалять свои сообщения
Вы не можете голосовать в опросах
Вы не можете прикреплять файлы к сообщениям
Вы не можете скачивать файлы

!ВНИМАНИЕ!
Сайт не предоставляет электронные версии произведений, а занимается лишь коллекционированием и каталогизацией ссылок, присылаемых и публикуемых на форуме нашими читателями. Если вы являетесь правообладателем какого-либо представленного материала и не желаете, чтобы ссылка на него находилась в нашем каталоге, свяжитесь с нами, и мы незамедлительно удалим ее. Файлы для обмена на трекере предоставлены пользователями сайта, и администрация не несет ответственности за их содержание. Просьба не заливать файлы, защищенные авторскими правами, а также файлы нелегального содержания!