[ Сегодня идет свободное скачивание без начисления Download ]


Статистика раздачи
Нет
 
   
 
Top  
 
 
-Самолеты / Planes (2013) BDRip [1080p] [Вертикальная анаморфная стереопара 3D] [Line]- -Год выпуска: 2013
Производство: США | DisneyToon Studios, Prana Studios
Жанр: мультфильм, комедия, приключения, семейный
Перевод: Дублированный (Чистый звук)
Язык субтитров: Английские (Full, SDH, SDH-Color)
Вид субтитров: Внешние (SRT UTF-8)-Дата мировой премьеры: 5 августа 2013 (США , Голливуд, Калифорния)
Дата российской премьеры: 29 августа 2013, «WDSSPR»
Дата выхода DVD релиза: 17 декабря 2013, «Уолт Дисней Компани СНГ»
Дата выхода Blu-Ray релиза: 17 декабря 2013, «Уолт Дисней Компани СНГ»-Режиссер: Клэй Холл
Продюсер: Трэйси Балтазор, Тони Косанелла, Кристин Дорниг
Актеры: Дейн Кук, Стейси Кич, Брэд Гэррет, Тери Хэтчер, Джулия Луис-Дрейфус, Приянка Чопра, Джон Клиз, Седрик «Развлекатель», Карлос Алазраки, Роджер Крэйг Смит
Роли дублировали: Константин Крюков, Нонна Гришаева, Равшана Куркова, Алексей Чумаков, Александр Ноткин, Александр Балакирев, Валерий Смекалов-Описание фильма:
Дасти Полейполе — скромный трудяга-самолет, работающий сельскохозяйственным распылителем на заштатном провинциальном аэродроме. Однако это не мешает ему мечтать о том, чтобы однажды принять участие в кругосветных гонках самых быстрых самолетов. Одна незадача — Дасти панически боится большой высоты. Поэтому, когда волею случая он все же попадает в число участников отборочного тура воздушных соревнований, ему приходится искать помощи у ветерана военно-морской авиации, отставного истребителя Шкипера. С помощью мудрого наставника Дасти сможет преодолеть свои слабости и бросить вызов надменному чемпиону Рипслингеру, а весь мир будет с замиранием сердца следить за гонкой в небесах!...-
Продолжительность: 01:31:34
Качество видео: BDRip
Формат 3D: Half OverUnder / Вертикальная анаморфная стереопара
Порядок ракурсов: левый ракурс первый-Видеокодек: MPEG-4 AVC/H.264
Битрейт видео: ~8128 Кбит/с
Размер кадра: 1920х1080
Аудио #1: - Русский: AC-3, 48 KHz, 2 ch, 192 Kbps (Дубляж - "Чистый звук")
Аудио #2: - Английский: AC-3, 48 KHz, 5.1 ch, 640 Kbps (Original)-

MediaInfo

Общее
Уникальный идентификатор : 247261666480307601722040736027307861611 (0xBA04DD60BCDF45BE920865A0C5E6E66B)
Полное имя : D:\Мои видеозаписи\(На NNM)\Planes(2013)3D_nnm-club\Planes(2013)3D.mkv
Формат : Matroska
Версия формата : Version 2
Размер файла : 5,85 Гбайт
Продолжительность : 1 ч. 31 м.
Общий поток : 9142 Кбит/сек
Название фильма : Самолеты / Planes (2013) 3D
Дата кодирования : UTC 2013-11-05 14:50:36
Программа кодирования : mkvmerge v5.8.0 ('No Sleep / Pillow') built on Sep 2 2012 15:37:04
Библиотека кодирования : libebml v1.2.3 + libmatroska v1.3.0
Видео
Идентификатор : 1
Формат : AVC
Формат/Информация : Advanced Video Codec
Профиль формата : High@L4.1
Параметр CABAC формата : Да
Параметр ReFrames формата : 4 кадра
Идентификатор кодека : V_MPEG4/ISO/AVC
Продолжительность : 1 ч. 31 м.
Битрейт : 8128 Кбит/сек
Ширина : 1920 пикселей
Высота : 1080 пикселей
Соотношение сторон : 16:9
Режим частоты кадров : Постоянный
Частота кадров : 23,976 кадра/сек
Цветовое пространство : YUV
Субдискретизация насыщенности : 4:2:0
Битовая глубина : 8 бит
Тип развёртки : Прогрессивная
Бит/(Пиксели*Кадры) : 0.163
Размер потока : 5,20 Гбайт (89%)
Заголовок : BDRip by Ash61
Библиотека кодирования : x264 core 129 r2245 bc13772
Настройки программы : cabac=1 / ref=4 / deblock=1:-3:-3 / analyse=0x3:0x113 / me=umh / subme=10 / psy=1 / psy_rd=1.00:0.15 / mixed_ref=1 / me_range=32 / chroma_me=1 / trellis=2 / 8x8dct=1 / cqm=0 / deadzone=21,11 / fast_pskip=1 / chroma_qp_offset=-3 / threads=12 / lookahead_threads=2 / sliced_threads=0 / nr=0 / decimate=1 / interlaced=0 / bluray_compat=0 / constrained_intra=0 / bframes=8 / b_pyramid=2 / b_adapt=2 / b_bias=0 / direct=3 / weightb=1 / open_gop=0 / weightp=2 / keyint=250 / keyint_min=23 / scenecut=40 / intra_refresh=0 / rc_lookahead=60 / rc=crf / mbtree=1 / crf=17.0 / qcomp=0.70 / qpmin=0 / qpmax=69 / qpstep=4 / vbv_maxrate=40000 / vbv_bufsize=30000 / crf_max=0.0 / nal_hrd=none / frame-packing=4 / ip_ratio=1.40 / aq=1:0.70
Язык : English
Default : Да
Forced : Нет
Аудио #1
Идентификатор : 2
Формат : AC-3
Формат/Информация : Audio Coding 3
Расширение режима : CM (complete main)
Параметр Endianness формата : Big
Идентификатор кодека : A_AC3
Продолжительность : 1 ч. 31 м.
Вид битрейта : Постоянный
Битрейт : 192 Кбит/сек
Каналы : 2 канала
Расположение каналов : Front: L R
Частота : 48,0 КГц
Битовая глубина : 16 бит
Метод сжатия : С потерями
Размер потока : 126 Мбайт (2%)
Заголовок : Дубляж - "Чистый звук" (edit by Ash61)
Язык : Russian
Default : Да
Forced : Нет
Аудио #2
Идентификатор : 3
Формат : AC-3
Формат/Информация : Audio Coding 3
Расширение режима : CM (complete main)
Параметр Endianness формата : Big
Идентификатор кодека : A_AC3
Продолжительность : 1 ч. 31 м.
Вид битрейта : Постоянный
Битрейт : 640 Кбит/сек
Каналы : 6 каналов
Расположение каналов : Front: L C R, Side: L R, LFE
Частота : 48,0 КГц
Битовая глубина : 16 бит
Метод сжатия : С потерями
Размер потока : 419 Мбайт (7%)
Заголовок : Original
Язык : English
Default : Нет
Forced : Нет
Меню
00:00:00.000 : :1
00:04:41.990 : :2
00:07:23.234 : :3
00:09:04.294 : :4
00:14:38.085 : :5
00:17:30.549 : :6
00:24:58.872 : :7
00:30:10.767 : :8
00:36:28.186 : :9
00:40:37.518 : :10
00:42:51.193 : :11
00:48:07.801 : :12
00:51:37.802 : :13
00:56:22.378 : :14
01:00:06.144 : :15
01:01:59.924 : :16
01:07:05.312 : :17
01:10:13.042 : :18
01:12:27.134 : :19
01:16:26.915 : :20
-Скриншоты:

[Цитировать]



Показать сообщения:    

Текущее время: 24-Фев 16:08

Часовой пояс: UTC + 3


Вы не можете начинать темы
Вы не можете отвечать на сообщения
Вы не можете редактировать свои сообщения
Вы не можете удалять свои сообщения
Вы не можете голосовать в опросах
Вы не можете прикреплять файлы к сообщениям
Вы не можете скачивать файлы

!ВНИМАНИЕ!
Сайт не предоставляет электронные версии произведений, а занимается лишь коллекционированием и каталогизацией ссылок, присылаемых и публикуемых на форуме нашими читателями. Если вы являетесь правообладателем какого-либо представленного материала и не желаете, чтобы ссылка на него находилась в нашем каталоге, свяжитесь с нами, и мы незамедлительно удалим ее. Файлы для обмена на трекере предоставлены пользователями сайта, и администрация не несет ответственности за их содержание. Просьба не заливать файлы, защищенные авторскими правами, а также файлы нелегального содержания!