[ Сегодня идет свободное скачивание без начисления Download ]


Статистика раздачи
Нет
 
   
 
Top  
 
 
-Университет монстров / Monsters University (2013) BDRip«Самый страшный универ в мире»- Год выпуска: 2013
Жанр: Мультфильм, Фэнтези, Комедия, Приключения, Семейный
Описание:
Майк и Салли — самые опытные пугатели в Монстрополисе, но так было далеко не всегда. Когда они встретились впервые, эти монстры терпеть друг друга не могли. «Университет Монстров» — история о том, как наши старые знакомые прошли путь от взаимной неприязни к крепкой дружбе.-
Дата мировой премьеры: 8 июня 2013 (США, Кинофестиваль в Сиэттле)
Дата российской премьеры: 20 июня 2013, «WDSSPR»
Дата выхода DVD релиза: 5 ноября 2013, «Уолт Дисней Компани СНГ»
Дата выхода Blu-Ray релиза: 5 ноября 2013, «Уолт Дисней Компани СНГ»-Режиссер: Дэн Скэнлон
Персонажи: Джон Гудман, Билли Кристал, Стив Бушеми, Хелен Миррен, Питер Сон, Джоэль Мюррей, Шон Хейс, Дэйв Фоли, Чарли Дэй, Альфред Молина
Продолжительность: 01:43:47
Качество видео: BDRip
Перевод: Дублированный (BD EUR) / Многоголосый закадровый (Baibako)
Видеокодек: MPEG-4 AVC/H.264
Битрейт видео: ~16,0 Мбит/сек
Размер кадра: 1920x2160
Аудио 1: AC3 5.1, 640 kbps, 48 kHz [Русский -Дублированный]
Аудио 2: AC3 5.1, 384 kbps, 48 kHz [Русский -MVO (BaibaKo)]
Аудио 3: AC3 5.1, 640 kbps, 48 kHz [Английский]-

Media info:

Общее
Уникальный идентификатор : 198923953797285419246984576791385010134 (0x95A75C2433E4BA8A84F4397F0F90EFD6)
Полное имя : D:\Full 3Drip\MONSTERS_UNIVERSITY_3D.mkv
Формат : Matroska
Версия формата : Version 2
Размер файла : 13,1 Гбайт
Продолжительность : 1 ч. 44 м.
Общий поток : 17,9 Мбит/сек
Название фильма : MONSTERS_UNIVERSITY_3D_FULL_O/U
Дата кодирования : UTC 2013-11-03 17:09:53
Программа кодирования : mkvmerge v5.7.0 ('The Whirlwind') built on Aug 7 2012 14:11:40
Библиотека кодирования : libebml v1.2.3 + libmatroska v1.3.0
Видео
Идентификатор : 1
Формат : AVC
Формат/Информация : Advanced Video Codec
Профиль формата : [email protected]
Параметр CABAC формата : Да
Параметр ReFrames формата : 6 кадров
Идентификатор кодека : V_MPEG4/ISO/AVC
Продолжительность : 1 ч. 44 м.
Битрейт : 15,9 Мбит/сек
Ширина : 1920 пикселей
Высота : 2160 пикселей
Соотношение сторон : 0,889
Режим частоты кадров : Постоянный
Частота кадров : 23,976 кадра/сек
Цветовое пространство : YUV
Субдискретизация насыщенности : 4:2:0
Битовая глубина : 8 бит
Тип развёртки : Прогрессивная
Бит/(Пиксели*Кадры) : 0.160
Размер потока : 11,6 Гбайт (89%)
Заголовок : rip by I/N
Библиотека кодирования : x264 core 128 r2216M 198a7ea
Настройки программы : cabac=1 / ref=6 / deblock=1:-1:-1 / analyse=0x3:0x133 / me=esa / subme=10 / psy=1 / psy_rd=1.00:0.15 / mixed_ref=1 / me_range=24 / chroma_me=1 / trellis=2 / 8x8dct=1 / cqm=0 / deadzone=21,11 / fast_pskip=1 / chroma_qp_offset=-3 / threads=8 / lookahead_threads=1 / sliced_threads=0 / nr=0 / decimate=1 / interlaced=0 / bluray_compat=0 / constrained_intra=0 / bframes=8 / b_pyramid=2 / b_adapt=2 / b_bias=0 / direct=3 / weightb=1 / open_gop=0 / weightp=2 / keyint=230 / keyint_min=23 / scenecut=40 / intra_refresh=0 / rc_lookahead=60 / rc=crf / mbtree=1 / crf=18.0 / qcomp=0.60 / qpmin=0 / qpmax=69 / qpstep=4 / ip_ratio=1.40 / aq=1:1.00
Default : Да
Forced : Нет
Аудио #1
Идентификатор : 2
Формат : AC-3
Формат/Информация : Audio Coding 3
Расширение режима : CM (complete main)
Параметр Endianness формата : Big
Идентификатор кодека : A_AC3
Продолжительность : 1 ч. 44 м.
Вид битрейта : Постоянный
Битрейт : 640 Кбит/сек
Каналы : 6 каналов
Расположение каналов : Front: L C R, Side: L R, LFE
Частота : 48,0 КГц
Битовая глубина : 16 бит
Метод сжатия : С потерями
Задержка видео : 170 мс.
Размер потока : 477 Мбайт (4%)
Заголовок : Дубляж (BD-EUR)
Язык : Russian
Default : Да
Forced : Нет
Аудио #2
Идентификатор : 3
Формат : AC-3
Формат/Информация : Audio Coding 3
Расширение режима : CM (complete main)
Параметр Endianness формата : Big
Идентификатор кодека : A_AC3
Продолжительность : 1 ч. 44 м.
Вид битрейта : Постоянный
Битрейт : 384 Кбит/сек
Каналы : 6 каналов
Расположение каналов : Front: L C R, Side: L R, LFE
Частота : 48,0 КГц
Битовая глубина : 16 бит
Метод сжатия : С потерями
Задержка видео : 300 мс.
Размер потока : 286 Мбайт (2%)
Заголовок : MVO (Baibako)
Язык : Russian
Default : Нет
Forced : Нет
Аудио #3
Идентификатор : 4
Формат : AC-3
Формат/Информация : Audio Coding 3
Расширение режима : CM (complete main)
Параметр Endianness формата : Big
Идентификатор кодека : A_AC3
Продолжительность : 1 ч. 44 м.
Вид битрейта : Постоянный
Битрейт : 640 Кбит/сек
Каналы : 6 каналов
Расположение каналов : Front: L C R, Side: L R, LFE
Частота : 48,0 КГц
Битовая глубина : 16 бит
Метод сжатия : С потерями
Задержка видео : 12 мс.
Размер потока : 477 Мбайт (4%)
Заголовок : Original
Язык : English
Default : Нет
Forced : Нет
Меню
00:00:00.000 : en:(01)00:00:00:000
00:06:26.719 : en:(02)00:06:26:719
00:07:06.884 : en:(03)00:07:06:884
00:10:54.111 : en:(04)00:10:54:111
00:12:19.947 : en:(05)00:12:19:947
00:16:09.968 : en:(06)00:16:09:968
00:18:15.635 : en:(07)00:18:15:635
00:19:37.592 : en:(08)00:19:37:592
00:21:06.848 : en:(09)00:21:06:848
00:23:43.630 : en:(10)00:23:43:630
00:29:22.718 : en:(11)00:29:22:718
00:30:39.462 : en:(12)00:30:39:462
00:33:38.098 : en:(13)00:33:38:098
00:36:30.979 : en:(14)00:36:30:979
00:38:19.421 : en:(15)00:38:19:421
00:39:22.568 : en:(16)00:39:22:568
00:45:13.334 : en:(17)00:45:13:334
00:47:14.831 : en:(18)00:47:14:831
00:51:08.147 : en:(19)00:51:08:147
00:55:21.192 : en:(20)00:55:21:192
00:57:30.321 : en:(21)00:57:30:321
01:01:42.239 : en:(22)01:01:42:239
01:04:37.289 : en:(23)01:04:37:289
01:07:33.006 : en:(24)01:07:33:006
01:14:11.320 : en:(25)01:14:11:320
01:18:07.848 : en:(26)01:18:07:848
01:19:25.718 : en:(27)01:19:25:718
01:23:53.402 : en:(28)01:23:53:402
01:24:38.655 : en:(29)01:24:38:655
01:28:00.232 : en:(30)01:28:00:232
01:32:51.356 : en:(31)01:32:51:356
01:34:24.032 : en:(32)01:34:24:032
01:43:47.470 : en:(33)01:43:47:470
На встроенных ТВ-плейерах показывать НЕ будет!!!Скриншоты:

[Цитировать]



Показать сообщения:    

Текущее время: 05-Дек 21:43

Часовой пояс: UTC + 3


Вы не можете начинать темы
Вы не можете отвечать на сообщения
Вы не можете редактировать свои сообщения
Вы не можете удалять свои сообщения
Вы не можете голосовать в опросах
Вы не можете прикреплять файлы к сообщениям
Вы не можете скачивать файлы

!ВНИМАНИЕ!
Сайт не предоставляет электронные версии произведений, а занимается лишь коллекционированием и каталогизацией ссылок, присылаемых и публикуемых на форуме нашими читателями. Если вы являетесь правообладателем какого-либо представленного материала и не желаете, чтобы ссылка на него находилась в нашем каталоге, свяжитесь с нами, и мы незамедлительно удалим ее. Файлы для обмена на трекере предоставлены пользователями сайта, и администрация не несет ответственности за их содержание. Просьба не заливать файлы, защищенные авторскими правами, а также файлы нелегального содержания!