[ Сегодня идет свободное скачивание без начисления Download ]


Статистика раздачи
Нет
 
   
 
Top  
 
 
-Турбо / Turbo (2013) BDRip«Быстрее, еще быстрее!»- Год выпуска: 2013
Жанр: Мультфильм, Комедия, Приключения, Семейный, Спорт
Описание:
Ничто так не раздражает темпераментную, мечтающую о скорости улитку с говорящим именем Турбо, как неспешная жизнь, медленные разговоры, заторможенные соседи. Пусть наш герой выглядит большим чудаком в этом вялом, неторопливом мире, пусть он идёт вопреки закону природы о «рождённом ползать», но если в сердце горит «пламенный мотор», а душа верит в чудо, оно просто не имеет права не произойти!-
Дата мировой премьеры: 17 июля 2013
Дата российской премьеры: 18 июля 2013, «Двадцатый Век Фокс СНГ»
Дата выхода DVD релиза: 21 ноября 2013, «Двадцатый Век Фокс СНГ»
Дата выхода Blu-Ray релиза: 21 ноября 2013, «Двадцатый Век Фокс СНГ»-Режиссер: Дэвид Сорен
Персонажи: Райан Рейнольдс, Пол Джаматти Майкл Пенья, Снуп Догг, Майя Рудольф, Мишель Родригес, Сэмюэл Л. Джексон, Луис Гусман, Билл Хейдер, Бен Шварц
Роли дублировали: Тимур Родригез, Саймон, Юлия Морозова, Станислав Концевич, Олег Куликович-Продолжительность: 01:35:40
Качество видео: BDRip
Перевод: Дублированный [BD EUR]
Видеокодек: MPEG-4 AVC/H.264
Битрейт видео: ~12,1 Мбит/сек
Размер кадра: 1920x1620
Аудио 1: DTS 5.1, 768 kbps, 48 kHz [Русский]
Аудио 2: AC3 5.1, 448 kbps, 48 kHz [Украинский]
Аудио 3: DTS 5.1, 1509 kbps, 48 kHz [Английский]-

Media info:

Общее
Уникальный идентификатор : 209223215902173847274339271869516457688 (0x9D66ECF7D6628613B642209D7A37A6D8)
Полное имя : D:\Full 3Drip\TURBO_3D.mkv
Формат : Matroska
Версия формата : Version 2
Размер файла : 10,1 Гбайт
Продолжительность : 1 ч. 35 м.
Общий поток : 15,2 Мбит/сек
Название фильма : TURBO_3D_FULL_O/U
Дата кодирования : UTC 2013-11-03 16:22:10
Программа кодирования : mkvmerge v5.7.0 ('The Whirlwind') built on Aug 7 2012 14:11:40
Библиотека кодирования : libebml v1.2.3 + libmatroska v1.3.0
Видео
Идентификатор : 1
Формат : AVC
Формат/Информация : Advanced Video Codec
Профиль формата : High@L5.1
Параметр CABAC формата : Да
Параметр ReFrames формата : 6 кадров
Идентификатор кодека : V_MPEG4/ISO/AVC
Продолжительность : 1 ч. 35 м.
Битрейт : 12,1 Мбит/сек
Ширина : 1920 пикселей
Высота : 1620 пикселей
Соотношение сторон : 1,185
Соотношение сторон в оригинале : 16:9
Режим частоты кадров : Постоянный
Частота кадров : 23,976 кадра/сек
Цветовое пространство : YUV
Субдискретизация насыщенности : 4:2:0
Битовая глубина : 8 бит
Тип развёртки : Прогрессивная
Бит/(Пиксели*Кадры) : 0.163
Размер потока : 8,10 Гбайт (80%)
Заголовок : rip by I/N
Библиотека кодирования : x264 core 128 r2216M 198a7ea
Настройки программы : cabac=1 / ref=6 / deblock=1:-1:-1 / analyse=0x3:0x133 / me=esa / subme=10 / psy=1 / psy_rd=1.00:0.15 / mixed_ref=1 / me_range=24 / chroma_me=1 / trellis=2 / 8x8dct=1 / cqm=0 / deadzone=21,11 / fast_pskip=1 / chroma_qp_offset=-3 / threads=8 / lookahead_threads=1 / sliced_threads=0 / nr=0 / decimate=1 / interlaced=0 / bluray_compat=0 / constrained_intra=0 / bframes=8 / b_pyramid=2 / b_adapt=2 / b_bias=0 / direct=3 / weightb=1 / open_gop=0 / weightp=2 / keyint=230 / keyint_min=23 / scenecut=40 / intra_refresh=0 / rc_lookahead=60 / rc=crf / mbtree=1 / crf=18.0 / qcomp=0.60 / qpmin=0 / qpmax=69 / qpstep=4 / ip_ratio=1.40 / aq=1:1.00
Default : Да
Forced : Нет
Аудио #1
Идентификатор : 2
Формат : DTS
Формат/Информация : Digital Theater Systems
Режим : 16
Параметр Endianness формата : Big
Идентификатор кодека : A_DTS
Продолжительность : 1 ч. 35 м.
Вид битрейта : Постоянный
Битрейт : 768 Кбит/сек
Каналы : 6 каналов
Расположение каналов : Front: L C R, Side: L R, LFE
Частота : 48,0 КГц
Битовая глубина : 24 бит
Метод сжатия : С потерями
Размер потока : 526 Мбайт (5%)
Заголовок : Дубляж (BD-EUR)
Язык : Russian
Default : Да
Forced : Нет
Аудио #2
Идентификатор : 3
Формат : AC-3
Формат/Информация : Audio Coding 3
Расширение режима : CM (complete main)
Параметр Endianness формата : Big
Идентификатор кодека : A_AC3
Продолжительность : 1 ч. 35 м.
Вид битрейта : Постоянный
Битрейт : 448 Кбит/сек
Каналы : 6 каналов
Расположение каналов : Front: L C R, Side: L R, LFE
Частота : 48,0 КГц
Битовая глубина : 16 бит
Метод сжатия : С потерями
Размер потока : 307 Мбайт (3%)
Заголовок : Дубляж (BD-EUR)
Язык : Ukrainian
Default : Нет
Forced : Нет
Аудио #3
Идентификатор : 4
Формат : DTS
Формат/Информация : Digital Theater Systems
Профиль формата : ES
Режим : 16
Параметр Endianness формата : Big
Идентификатор кодека : A_DTS
Продолжительность : 1 ч. 35 м.
Вид битрейта : Постоянный
Битрейт : 1509 Кбит/сек
Каналы : 6 каналов
Расположение каналов : Front: L C R, Side: L R, LFE
Частота : 48,0 КГц
Битовая глубина : 24 бит
Метод сжатия : С потерями
Размер потока : 1,01 Гбайт (10%)
Заголовок : Original
Язык : English
Default : Нет
Forced : Нет
Меню
00:00:00.000 : en:(01)00:00:00:000
00:03:29.626 : en:(02)00:03:29:626
00:06:39.857 : en:(03)00:06:39:857
00:08:34.222 : en:(04)00:08:34:222
00:10:13.863 : en:(05)00:10:13:863
00:13:25.095 : en:(06)00:13:25:095
00:17:15.784 : en:(07)00:17:15:784
00:21:53.353 : en:(08)00:21:53:353
00:25:42.707 : en:(09)00:25:42:707
00:28:24.494 : en:(10)00:28:24:494
00:30:17.899 : en:(11)00:30:17:899
00:34:20.892 : en:(12)00:34:20:892
00:38:20.339 : en:(13)00:38:20:339
00:40:45.109 : en:(14)00:40:45:109
00:44:40.219 : en:(15)00:44:40:219
00:47:40.941 : en:(16)00:47:40:941
00:49:29.925 : en:(17)00:49:29:925
00:53:28.955 : en:(18)00:53:28:955
00:57:00.625 : en:(19)00:57:00:625
00:59:38.825 : en:(20)00:59:38:825
01:02:05.972 : en:(21)01:02:05:972
01:05:50.780 : en:(22)01:05:50:780
01:08:07.166 : en:(23)01:08:07:166
01:13:08.801 : en:(24)01:13:08:801
01:16:26.790 : en:(25)01:16:26:790
01:19:48.450 : en:(26)01:19:48:450
01:23:26.126 : en:(27)01:23:26:126
01:26:29.726 : en:(28)01:26:29:726
01:35:40.484 : en:(29)01:35:40:484

Особенности релиза:

Рип сделан в формате 16:9 - специально для корректного воспроизведения 3Dсофт-плеерами сразу в полный экран.
Воспроизведение проверенно: Arcsoft TMT5,6 и Cyberlink PowerDVD12,13
Всем приятного просмотра!
На встроенных ТВ-плейерах показывать НЕ будет!!!Скриншоты:

[Цитировать]



Показать сообщения:    

Текущее время: 10-Дек 21:29

Часовой пояс: UTC + 3


Вы не можете начинать темы
Вы не можете отвечать на сообщения
Вы не можете редактировать свои сообщения
Вы не можете удалять свои сообщения
Вы не можете голосовать в опросах
Вы не можете прикреплять файлы к сообщениям
Вы не можете скачивать файлы

!ВНИМАНИЕ!
Сайт не предоставляет электронные версии произведений, а занимается лишь коллекционированием и каталогизацией ссылок, присылаемых и публикуемых на форуме нашими читателями. Если вы являетесь правообладателем какого-либо представленного материала и не желаете, чтобы ссылка на него находилась в нашем каталоге, свяжитесь с нами, и мы незамедлительно удалим ее. Файлы для обмена на трекере предоставлены пользователями сайта, и администрация не несет ответственности за их содержание. Просьба не заливать файлы, защищенные авторскими правами, а также файлы нелегального содержания!