[ Сегодня идет свободное скачивание без начисления Download ]


Статистика раздачи
Нет
 
   
 
Top  
 
 
Властелин легенд / Хранитель снов / DreamKeeper«A grandfather who believes in tradition. A teenager who believes in today»- Страна: США, Канада, Германия
Жанр: Фэнтези, приключения
Год выпуска: 2003
Продолжительность: 03:02:12-Перевод: Профессиональный (многоголосый закадровый)
Cубтитры: нет-Режиссер: Стив Бэррон / Steve Barron-В ролях: Аугуст Шелленберг, Эдди Спирс, Гэри Фармер, Джон Труделл, Чэск Спенсер, Тенейл Уискиджек, Алекс Райс, Майкл Грейес, Танту Кардинал, Дакота Хаус-Описание: Почти столетний Пит хранит историю своего индейского племени. Но его 17 -летний внук Шейн, член уличной банды «Псы-воины», далек от всего этого. Лишь задолжав своим товарищам по банде крупную сумму денег, он согласился отвезти дедушку на ежегодный совет племен в штат Нью-Мексико, за много сотен миль от родной Южной Дакоты. По пути Пит рассказывает ему легенды племени, которые Шейн должен обязательно запомнить и передать своим потомкам. Эта поездка навсегда изменит его жизнь…-Доп. информация: На протяжении всего фильма присутствует плавающий кроп. Дабы не резать картинку, где черные полосы отсутствуют, кроп решил не убирать.-Sample | IMDB | КиноПоиск-Тип релиза: BDRip [исх. Blu-ray 1080p]
Формат видео: AVI-Видео: 608x336 (1.81:1), 23.976 fps, XviD build 50, 1005 kbps avg, 0.21 bit/pixel
Аудио: 48 kHz, MPEG Layer 3, 2 ch, 128.00 kbps avg [Russian_MVO]

MediaInfo

General
Complete name : E:\Мои раздачи\Dreamkeeper_BDRip_[1.46]_RG_All_Films.avi
Format : AVI
Format/Info : Audio Video Interleave
File size : 1.46 GiB
Duration : 3h 2mn
Overall bit rate : 1 143 Kbps
Writing application : VirtualDubMod 1.6.0.0 SURROUND (build 2560/release)
Writing library : VirtualDubMod build 2560/release
Video
ID : 0
Format : MPEG-4 Visual
Format profile : Advanced [email protected]
Format settings, BVOP : Yes
Format settings, QPel : No
Format settings, GMC : No warppoints
Format settings, Matrix : Custom
Codec ID : XVID
Codec ID/Hint : XviD
Duration : 3h 2mn
Bit rate : 1 006 Kbps
Width : 608 pixels
Height : 336 pixels
Display aspect ratio : 16:9
Frame rate : 23.976 fps
Color space : YUV
Chroma subsampling : 4:2:0
Bit depth : 8 bits
Scan type : Progressive
Compression mode : Lossy
Bits/(Pixel*Frame) : 0.205
Stream size : 1.28 GiB (88%)
Writing library : XviD 1.2.1 (UTC 2008-12-04)
Audio
ID : 1
Format : MPEG Audio
Format version : Version 1
Format profile : Layer 3
Codec ID : 55
Codec ID/Hint : MP3
Duration : 3h 2mn
Bit rate mode : Constant
Bit rate : 128 Kbps
Channel(s) : 2 channels
Sampling rate : 48.0 KHz
Compression mode : Lossy
Stream size : 167 MiB (11%)
Alignment : Aligned on interleaves
Interleave, duration : 42 ms (1.00 video frame)
Interleave, preload duration : 504 ms
Writing library : LAME3.98r
Encoding settings : -m s -V 4 -q 2 -lowpass 17 -b 128

[Цитировать]



Показать сообщения:    

Текущее время: 05-Дек 23:45

Часовой пояс: UTC + 3


Вы не можете начинать темы
Вы не можете отвечать на сообщения
Вы не можете редактировать свои сообщения
Вы не можете удалять свои сообщения
Вы не можете голосовать в опросах
Вы не можете прикреплять файлы к сообщениям
Вы не можете скачивать файлы

!ВНИМАНИЕ!
Сайт не предоставляет электронные версии произведений, а занимается лишь коллекционированием и каталогизацией ссылок, присылаемых и публикуемых на форуме нашими читателями. Если вы являетесь правообладателем какого-либо представленного материала и не желаете, чтобы ссылка на него находилась в нашем каталоге, свяжитесь с нами, и мы незамедлительно удалим ее. Файлы для обмена на трекере предоставлены пользователями сайта, и администрация не несет ответственности за их содержание. Просьба не заливать файлы, защищенные авторскими правами, а также файлы нелегального содержания!