[ Сегодня идет свободное скачивание без начисления Download ]


Статистика раздачи
Нет
 
   
 
Top  
 
 
-Росомаха: Бессмертный / The Wolverine (2013) BDRip [1080p] [EXTENDED] [LINE]- Год выпуска: 2013
Производство: Австралия, США
Жанр: Фантастика, Фэнтези, Боевик, Приключения
Перевод: Дублированный [LINE]
Субтитры: Русские, английские, вшитые отключаемые; русские, вшитые неотключаемые на расширенные сцены.
Примечание: EXTENDED версия длиннее театральной на ~12 минут! Расширенные сцены переведены русскими субтитрами!
Дата мировой премьеры: 16 июля 2013
Дата российской премьеры: 25 июля 2013, «Двадцатый Век Фокс СНГ»
Дата выхода DVD / Blu-Ray релиза: 28 ноября 2013, «Двадцатый Век Фокс СНГ»
Режиссер: Джеймс Мэнголд
Продюсер: Хью Джекман, Хатч Паркер, Лорен Шулер Доннер
Актеры: Хью Джекман, Тао Окамото, Рила Фукусима, Светлана Ходченкова, Уилл Юн Ли, Харукико Яманоути, Хироюки Санада, Брайан Ти, Кен Ямамура, Фамке Янссен
Описание фильма:
Новая глава приключений Росомахи развернётся в Японии, где Логану предстоит выяснить, что острее — когти Росомахи или меч Серебряного Самурая.

Продолжительность: 02:18:14
Качество видео: BDRip [1080p]
Видеокодек: MPEG-4 AVC/H.264
Битрейт видео: ~11.2 Мбит/с
Размер кадра: 1920x798
Аудио #1: Русский: AC-3, 48.0 KHz, 2 ch, 192 Kbps, CBR
Аудио #2: Английский: DTS ES, 48.0 KHz, 6 ch, 1510 Kbps, CBR
Аудио #3: Английский: AC-3, 48.0 KHz, 2 ch, 224 Kbps, CBR
Сэмпл: Скачать

MediaInfo:

Общее
Уникальный идентификатор : 185298140961038777834359416662521640196 (0x8B671FB36DC1530FB540629CB55D7504)
Полное имя : D:\Фильмы\Rosomaha.2013.D.EXTENDED.BDRip.1080p.mkv
Формат : Matroska
Версия формата : Version 2
Размер файла : 12,9 Гбайт
Продолжительность : 2 ч. 18 м.
Общий поток : 13,4 Мбит/сек
Дата кодирования : UTC 2013-11-08 06:12:11
Программа кодирования : mkvmerge v6.3.0 ('You can't stop me!') built on Jun 28 2013 20:09:41
Библиотека кодирования : libebml v1.3.0 + libmatroska v1.4.0
Видео
Идентификатор : 1
Формат : AVC
Формат/Информация : Advanced Video Codec
Профиль формата : High@L4.0
Параметр CABAC формата : Да
Параметр ReFrames формата : 5 кадров
Идентификатор кодека : V_MPEG4/ISO/AVC
Продолжительность : 2 ч. 18 м.
Битрейт : 11,2 Мбит/сек
Ширина : 1920 пикселей
Высота : 798 пикселей
Соотношение сторон : 2,40:1
Режим частоты кадров : Постоянный
Частота кадров : 23,976 кадра/сек
Цветовое пространство : YUV
Субдискретизация насыщенности : 4:2:0
Битовая глубина : 8 бит
Тип развёртки : Прогрессивная
Бит/(Пиксели*Кадры) : 0.304
Размер потока : 10,8 Гбайт (84%)
Библиотека кодирования : x264 core 140 r2377kMod 1ca7bb9
Настройки программы : cabac=1 / ref=5 / deblock=1:-3:-3 / analyse=0x3:0x133 / me=umh / subme=10 / psy=1 / fade_compensate=0.00 / psy_rd=1.07:0.00 / mixed_ref=1 / me_range=48 / chroma_me=1 / trellis=2 / 8x8dct=1 / cqm=0 / deadzone=21,11 / fast_pskip=0 / chroma_qp_offset=-2 / threads=12 / lookahead_threads=2 / sliced_threads=0 / nr=0 / decimate=1 / interlaced=0 / bluray_compat=0 / constrained_intra=0 / fgo=0 / bframes=7 / b_pyramid=2 / b_adapt=2 / b_bias=0 / direct=3 / weightb=1 / open_gop=0 / weightp=2 / keyint=250 / keyint_min=23 / scenecut=40 / intra_refresh=0 / rc=crf / mbtree=0 / crf=16.5000 / qcomp=0.60 / qpmin=0 / qpmax=69 / qpstep=4 / ip_ratio=1.30 / pb_ratio=1.20 / aq=1:0.85
Язык : English
Default : Да
Forced : Нет
Аудио #1
Идентификатор : 2
Формат : AC-3
Формат/Информация : Audio Coding 3
Расширение режима : CM (complete main)
Параметр Endianness формата : Big
Идентификатор кодека : A_AC3
Продолжительность : 2 ч. 18 м.
Вид битрейта : Постоянный
Битрейт : 192 Кбит/сек
Каналы : 2 канала
Расположение каналов : Front: L R
Частота : 48,0 КГц
Битовая глубина : 16 бит
Метод сжатия : С потерями
Размер потока : 190 Мбайт (1%)
Язык : Russian
Default : Да
Forced : Нет
Аудио #2
Идентификатор : 3
Формат : DTS
Формат/Информация : Digital Theater Systems
Профиль формата : ES
Режим : 16
Параметр Endianness формата : Big
Идентификатор кодека : A_DTS
Продолжительность : 2 ч. 18 м.
Вид битрейта : Постоянный
Битрейт : 1509 Кбит/сек
Каналы : 6 каналов
Расположение каналов : Front: L C R, Side: L R, LFE
Частота : 48,0 КГц
Битовая глубина : 24 бит
Метод сжатия : С потерями
Размер потока : 1,46 Гбайт (11%)
Язык : English
Default : Нет
Forced : Нет
Аудио #3
Идентификатор : 4
Формат : AC-3
Формат/Информация : Audio Coding 3
Расширение режима : CM (complete main)
Параметр Endianness формата : Big
Идентификатор кодека : A_AC3
Продолжительность : 2 ч. 18 м.
Вид битрейта : Постоянный
Битрейт : 224 Кбит/сек
Каналы : 2 канала
Расположение каналов : Front: L R
Частота : 48,0 КГц
Битовая глубина : 16 бит
Метод сжатия : С потерями
Размер потока : 221 Мбайт (2%)
Заголовок : Director's Commentary
Язык : English
Default : Нет
Forced : Нет
Текст #1
Идентификатор : 5
Формат : UTF-8
Идентификатор кодека : S_TEXT/UTF8
Идентификатор кодека/Информация : UTF-8 Plain Text
Язык : Russian
Default : Да
Forced : Нет
Текст #2
Идентификатор : 6
Формат : UTF-8
Идентификатор кодека : S_TEXT/UTF8
Идентификатор кодека/Информация : UTF-8 Plain Text
Заголовок : Foreign Parts
Язык : English
Default : Нет
Forced : Нет
Текст #3
Идентификатор : 7
Формат : UTF-8
Идентификатор кодека : S_TEXT/UTF8
Идентификатор кодека/Информация : UTF-8 Plain Text
Язык : English
Default : Нет
Forced : Нет
Текст #4
Идентификатор : 8
Формат : UTF-8
Идентификатор кодека : S_TEXT/UTF8
Идентификатор кодека/Информация : UTF-8 Plain Text
Заголовок : SDH
Язык : English
Default : Нет
Forced : Нет
Меню
00:00:00.000 : en:00:00:00.000
00:05:03.720 : en:00:05:03.720
00:07:39.793 : en:00:07:39.793
00:08:40.562 : en:00:08:40.562
00:10:24.374 : en:00:10:24.374
00:13:55.668 : en:00:13:55.668
00:16:48.174 : en:00:16:48.174
00:20:32.648 : en:00:20:32.648
00:23:36.498 : en:00:23:36.498
00:29:13.585 : en:00:29:13.585
00:33:42.771 : en:00:33:42.771
00:35:14.779 : en:00:35:14.779
00:38:36.522 : en:00:38:36.522
00:43:04.957 : en:00:43:04.957
00:47:55.080 : en:00:47:55.080
00:49:31.844 : en:00:49:31.844
00:52:23.098 : en:00:52:23.098
00:59:32.318 : en:00:59:32.318
01:01:31.354 : en:01:01:31.354
01:07:00.516 : en:01:07:00.516
01:13:10.261 : en:01:13:10.261
01:18:52.227 : en:01:18:52.227
01:23:40.473 : en:01:23:40.473
01:26:47.160 : en:01:26:47.160
01:29:50.927 : en:01:29:50.927
01:35:19.380 : en:01:35:19.380
01:38:28.194 : en:01:38:28.194
01:41:43.639 : en:01:41:43.639
01:48:33.006 : en:01:48:33.006
01:52:05.969 : en:01:52:05.969
01:54:56.264 : en:01:54:56.264
01:58:03.493 : en:01:58:03.493
02:03:01.999 : en:02:03:01.999
02:04:57.406 : en:02:04:57.406
02:07:46.700 : en:02:07:46.700
02:09:17.374 : en:02:09:17.374

Дополнительно:

Сохранены оригинальные чаптеры
Скриншоты:

[Цитировать]

Топик был перенесен из форума Новинки кинопроката (HD Video) в форум Зарубежное кино (HD Video)
Bootch



Показать сообщения:    

Текущее время: 11-Дек 13:02

Часовой пояс: UTC + 3


Вы не можете начинать темы
Вы не можете отвечать на сообщения
Вы не можете редактировать свои сообщения
Вы не можете удалять свои сообщения
Вы не можете голосовать в опросах
Вы не можете прикреплять файлы к сообщениям
Вы не можете скачивать файлы

!ВНИМАНИЕ!
Сайт не предоставляет электронные версии произведений, а занимается лишь коллекционированием и каталогизацией ссылок, присылаемых и публикуемых на форуме нашими читателями. Если вы являетесь правообладателем какого-либо представленного материала и не желаете, чтобы ссылка на него находилась в нашем каталоге, свяжитесь с нами, и мы незамедлительно удалим ее. Файлы для обмена на трекере предоставлены пользователями сайта, и администрация не несет ответственности за их содержание. Просьба не заливать файлы, защищенные авторскими правами, а также файлы нелегального содержания!