[ Сегодня идет свободное скачивание без начисления Download ]


Статистика раздачи
Нет
 
   
 
Top  
 
 
Штурм Белого дома / White House Down Страна: США
Студия: Centropolis Entertainment, Iron Horse Entertainment, Mythology Entertainment
Жанр: Боевик, драма
Год выпуска: 2013
Продолжительность: 02:11:32
Перевод: Профессиональный (дублированный) Blu-Ray EUR
Cубтитры: русские(Blu-ray),английские
Оригинальная аудиодорожка: английский
Режиссер: Роланд Эммерих / Roland Emmerich
В ролях: Ченнинг Татум, Джои Кинг, Джеймс Вудс, Джейсон Кларк, Джейми Фокс, Мэгги Джилленхол, Рашель Лефевр, Лэнс Реддик, Джимми Симпсон, Лэнс Реддик, Ричард Дженкинс
Описание: Если вы не прошли интервью для того, чтобы попасть в охрану к президенту, не отчаивайтесь, у вас есть шанс на экскурсию по Белому Дому. Чтобы улучшить свои шаткие отношения с дочерью, Кэйл выпрашивает 2 билета для этой экскурсии. Кто же мог предвидеть, что в окружении президента завелась "крыса". Здесь Кэйл и сумел проявить свое мужество в спасении президента Соера и маленькой Эмили. В фильме есть и комические моменты: три президента за один фильм, гонки на президентском лимузине вокруг фонтана по лужайке Белого дома, действия самого президента иногда заставляют улыбнутся, как всегда, не обошлось без русских и конечно вы найдете ответ на вопрос, есть ли в Белом Доме секретный туннель. И в завершении для того, чтобы узнать как девочка спасла Белый Дом от разрушений, вам надо посмотреть этот фильм.

Тип релиза: BDRip 1080p[NTb]
Контейнер: MKV
Видео: AVC, 1920x804,13800 kbps, 23.976 fps
Аудио 1: Russian: 48 kHz, AC3, 3/2 (L,C,R,l,r) + LFE ch, ~640.00 kbps avg |Blu-ray|
Аудио 2: Ukrainian: 48 kHz, AC3, 3/2 (L,C,R,l,r) + LFE ch, ~640.00 kbps avg |Blu-ray|
Аудио 3: English: 48 kHz, DTS, 3/2 (L,C,R,l,r) + LFE ch, ~1536.00 kbps |Original|
Чаптеры:есть

MediaInfo

General
Unique ID : 222106838745037326966261853780746117755 (0xA718389DE418844599763CEC608F227B)
Complete name : D:\Рипы\White.House.Down.2013.1080p.BluRay.DTS.x264-Talian-.mkv
Format : Matroska
Format version : Version 2
File size : 15.6 GiB
Duration : 2h 11mn
Overall bit rate : 16.9 Mbps
Movie name : -Talian-
Encoded date : UTC 2013-10-13 11:00:00
Writing application : mkvmerge v5.7.0 ('The Whirlwind') built on Jul 8 2012 20:08:51
Writing library : libebml v1.2.3 + libmatroska v1.3.0
Video
ID : 1
Format : AVC
Format/Info : Advanced Video Codec
Format profile : High@L4.0
Format settings, CABAC : Yes
Format settings, ReFrames : 5 frames
Codec ID : V_MPEG4/ISO/AVC
Duration : 2h 11mn
Bit rate : 13.8 Mbps
Width : 1 920 pixels
Height : 804 pixels
Display aspect ratio : 2.40:1
Frame rate : 23.976 fps
Color space : YUV
Chroma subsampling : 4:2:0
Bit depth : 8 bits
Scan type : Progressive
Bits/(Pixel*Frame) : 0.373
Stream size : 12.7 GiB (82%)
Title : NTb
Writing library : x264 core 138 r2358kMod 9e941d1
Encoding settings : cabac=1 / ref=5 / deblock=1:-3:-3 / analyse=0x3:0x133 / me=umh / subme=10 / psy=1 / fade_compensate=0.00 / psy_rd=1.07:0.00 / mixed_ref=1 / me_range=48 / chroma_me=1 / trellis=2 / 8x8dct=1 / cqm=0 / deadzone=21,11 / fast_pskip=0 / chroma_qp_offset=-2 / threads=12 / lookahead_threads=2 / sliced_threads=0 / nr=0 / decimate=1 / interlaced=0 / bluray_compat=0 / constrained_intra=0 / bframes=7 / b_pyramid=2 / b_adapt=2 / b_bias=0 / direct=3 / weightb=1 / open_gop=0 / weightp=2 / keyint=250 / keyint_min=23 / scenecut=40 / intra_refresh=0 / rc=crf / mbtree=0 / crf=16.5000 / qcomp=0.60 / qpmin=0 / qpmax=69 / qpstep=4 / ip_ratio=1.30 / pb_ratio=1.20 / aq=1:0.80
Language : English
Default : No
Forced : No
Audio #1
ID : 2
Format : AC-3
Format/Info : Audio Coding 3
Mode extension : CM (complete main)
Format settings, Endianness : Big
Codec ID : A_AC3
Duration : 2h 11mn
Bit rate mode : Constant
Bit rate : 640 Kbps
Channel(s) : 6 channels
Channel positions : Front: L C R, Side: L R, LFE
Sampling rate : 48.0 KHz
Bit depth : 16 bits
Compression mode : Lossy
Stream size : 602 MiB (4%)
Title : DUB- Blu-Ray EUR
Language : Russian
Default : Yes
Forced : No
Audio #2
ID : 3
Format : AC-3
Format/Info : Audio Coding 3
Mode extension : CM (complete main)
Format settings, Endianness : Big
Codec ID : A_AC3
Duration : 2h 11mn
Bit rate mode : Constant
Bit rate : 640 Kbps
Channel(s) : 6 channels
Channel positions : Front: L C R, Side: L R, LFE
Sampling rate : 48.0 KHz
Bit depth : 16 bits
Compression mode : Lossy
Stream size : 602 MiB (4%)
Title : DUB- Blu-Ray EUR
Language : Ukrainian
Default : No
Forced : No
Audio #3
ID : 4
Format : DTS
Format/Info : Digital Theater Systems
Codec ID : A_DTS
Duration : 2h 11mn
Bit rate mode : Constant
Bit rate : 1 510 Kbps
Channel(s) : 6 channels
Channel positions : Front: L C R, Side: L R, LFE
Sampling rate : 48.0 KHz
Bit depth : 24 bits
Compression mode : Lossy
Stream size : 1.39 GiB (9%)
Title : Original
Language : English
Default : No
Forced : No
Text #1
ID : 5
Format : UTF-8
Codec ID : S_TEXT/UTF8
Codec ID/Info : UTF-8 Plain Text
Title : Sub-Blu-ray
Language : Russian
Default : No
Forced : No
Text #2
ID : 6
Format : UTF-8
Codec ID : S_TEXT/UTF8
Codec ID/Info : UTF-8 Plain Text
Title : Sub
Language : English
Default : No
Forced : No
Menu
00:00:00.000 : en:00:00:00.000
00:06:39.774 : en:00:06:39.774
00:15:18.835 : en:00:15:18.835
00:21:37.838 : en:00:21:37.838
00:30:10.809 : en:00:30:10.809
00:37:47.348 : en:00:37:47.348
00:45:51.207 : en:00:45:51.207
00:51:12.278 : en:00:51:12.278
00:59:55.133 : en:00:59:55.133
01:07:08.942 : en:01:07:08.942
01:14:42.853 : en:01:14:42.853
01:24:13.590 : en:01:24:13.590
01:29:53.805 : en:01:29:53.805
01:37:27.717 : en:01:37:27.717
01:44:36.562 : en:01:44:36.562
01:54:17.851 : en:01:54:17.851

Скриншоты

Source vs Encode




[Цитировать]



Показать сообщения:    

Текущее время: 09-Дек 22:23

Часовой пояс: UTC + 3


Вы не можете начинать темы
Вы не можете отвечать на сообщения
Вы не можете редактировать свои сообщения
Вы не можете удалять свои сообщения
Вы не можете голосовать в опросах
Вы не можете прикреплять файлы к сообщениям
Вы не можете скачивать файлы

!ВНИМАНИЕ!
Сайт не предоставляет электронные версии произведений, а занимается лишь коллекционированием и каталогизацией ссылок, присылаемых и публикуемых на форуме нашими читателями. Если вы являетесь правообладателем какого-либо представленного материала и не желаете, чтобы ссылка на него находилась в нашем каталоге, свяжитесь с нами, и мы незамедлительно удалим ее. Файлы для обмена на трекере предоставлены пользователями сайта, и администрация не несет ответственности за их содержание. Просьба не заливать файлы, защищенные авторскими правами, а также файлы нелегального содержания!