[ Сегодня идет свободное скачивание без начисления Download ]


Статистика раздачи
Нет
 
   
 
Top  
 
 
Орудия смерти: Город костей / The Mortal Instruments: City of Bones«Миры столкнутся»
Год выпуска: 2013
Страна: Канада, Германия
Производство: Constantin Film Produktion GmbH, Sony Pictures Entertainment (SPE), Unique Features
Жанр: [sh]Боевик, Детектив, Приключения[/sh]
Режиссер: Харольд Цварт
В ролях: Джейми Кэмпбелл Бауэр, Лили Коллинз, Кевин Дюранд, Джаред Харрис, Лина Хэди, Роберт Мэйллет, ККХ Паундер, Джонатан Риз Мейерс, Роберт Шихан, Кевин Зегерс
Перевод: Профессиональный (полное дублирование) + Оригинал (Английский)
Субтитры: Отсутствуют
Описание: Клэри Фрэй всегда считала себя самой обыкновенной девушкой, пока не выяснилось, что она — потомок древнего рода Сумеречных Охотников, тайной касты воинов-полуангелов, защищающих наш мир от демонов. Когда мама Клэри исчезает, девушка объединяется с Сумеречными охотниками, чтобы спасти ее. Так начинается ее опасное знакомство с иной реальностью, в которой существуют демоны, маги, вампиры, оборотни и другие смертоносные существа.
Качество: BDRip 1080p
Продолжительность: 02:10:15 час.
Формат: MKV
Главы: Есть
Видео кодек: AVC High@L4.1
Аудио кодек: AC3
Видео: 1920x800 (2,40:1), 23,976 fps, ~10.5 Mbps, 0.284 bit/ pixel
Аудио: Русский: AC-3, 48.0 KHz, 6 ch, 384 Kbps, CBR | DUB
Аудио #2: Английский: DTS, 48.0 KHz, 6 ch, 1509 Kbps, CBR | Оригинал
Премьера (мир): 12 августа 2013
Премьера (РФ): 22 августа 2013, «Централ Партнершип»

MediaInfo

Общее
Уникальный идентификатор : 219406083695585020972196486457082138328 (0xA510131CB8B6E02B8E905CD6BABE4ED8)
Полное имя : D:\Orudiya.smerty.Gorod.kostej.2013.D.BDRip.1080p.mkv
Формат : Matroska
Версия формата : Version 2
Размер файла : 11,2 Гбайт
Продолжительность : 2 ч. 10 м.
Общий поток : 12,3 Мбит/сек
Дата кодирования : UTC 2013-11-19 08:49:39
Программа кодирования : mkvmerge v6.3.0 ('You can't stop me!') built on Jun 28 2013 20:09:41
Библиотека кодирования : libebml v1.3.0 + libmatroska v1.4.0
Видео
Идентификатор : 1
Формат : AVC
Формат/Информация : Advanced Video Codec
Профиль формата : High@L4.1
Параметр CABAC формата : Да
Параметр ReFrames формата : 5 кадров
Идентификатор кодека : V_MPEG4/ISO/AVC
Продолжительность : 2 ч. 10 м.
Битрейт : 10,5 Мбит/сек
Ширина : 1920 пикселей
Высота : 800 пикселей
Соотношение сторон : 2,40:1
Режим частоты кадров : Постоянный
Частота кадров : 23,976 кадра/сек
Цветовое пространство : YUV
Субдискретизация насыщенности : 4:2:0
Битовая глубина : 8 бит
Тип развёртки : Прогрессивная
Бит/(Пиксели*Кадры) : 0.284
Размер потока : 9,29 Гбайт (83%)
Библиотека кодирования : x264 core 133 r2334+704+50 a7549b7 tMod [8-bit@4:2:0 X86_64]
Настройки программы : cabac=1 / ref=5 / deblock=1:-3:-3 / analyse=0x3:0x113 / me=umh / subme=10 / psy=1 / fade_compensate=0.00 / psy_rd=1.05:0.02 / mixed_ref=1 / me_range=32 / chroma_me=1 / trellis=2 / 8x8dct=1 / cqm=0 / deadzone=21,11 / fast_pskip=1 / chroma_qp_offset=-3 / threads=16 / lookahead_threads=1 / sliced_threads=0 / nr=0 / decimate=1 / interlaced=0 / bluray_compat=0 / constrained_intra=0 / fgo=0 / bframes=6 / b_pyramid=2 / b_adapt=1 / b_bias=0 / direct=3 / weightb=1 / open_gop=0 / weightp=2 / keyint=240 / keyint_min=23 / scenecut=40 / intra_refresh=0 / rc_lookahead=50 / rc=2pass / mbtree=1 / bitrate=10458 / ratetol=1.0 / qcomp=0.70 / qpmin=0 / qpmax=69 / qpstep=4 / cplxblur=20.0 / qblur=0.5 / vbv_maxrate=50000 / vbv_bufsize=50000 / nal_hrd=none / ip_ratio=1.40 / aq=4:0.85 / aq-sensitivity=10.00 / aq-factor=1.00:1.00:1.00 / aq2=0 / aq3=0
Язык : English
Default : Да
Forced : Нет
Аудио #1
Идентификатор : 2
Формат : AC-3
Формат/Информация : Audio Coding 3
Расширение режима : CM (complete main)
Параметр Endianness формата : Big
Идентификатор кодека : A_AC3
Продолжительность : 2 ч. 10 м.
Вид битрейта : Постоянный
Битрейт : 384 Кбит/сек
Каналы : 6 каналов
Расположение каналов : Front: L C R, Side: L R, LFE
Частота : 48,0 КГц
Битовая глубина : 16 бит
Метод сжатия : С потерями
Размер потока : 358 Мбайт (3%)
Язык : Russian
Default : Да
Forced : Нет
Аудио #2
Идентификатор : 3
Формат : DTS
Формат/Информация : Digital Theater Systems
Режим : 16
Параметр Endianness формата : Big
Идентификатор кодека : A_DTS
Продолжительность : 2 ч. 10 м.
Вид битрейта : Постоянный
Битрейт : 1509 Кбит/сек
Каналы : 6 каналов
Расположение каналов : Front: L C R, Side: L R, LFE
Частота : 48,0 КГц
Битовая глубина : 24 бит
Метод сжатия : С потерями
Размер потока : 1,37 Гбайт (12%)
Язык : English
Default : Нет
Forced : Нет
Меню
00:00:00.000 : en:00:00:00.000
00:08:04.609 : en:00:08:04.609
00:15:02.360 : en:00:15:02.360
00:22:18.379 : en:00:22:18.379
00:29:46.034 : en:00:29:46.034
00:38:43.071 : en:00:38:43.071
00:44:12.859 : en:00:44:12.859
00:49:45.232 : en:00:49:45.232
00:59:47.667 : en:00:59:47.667
01:06:47.295 : en:01:06:47.295
01:15:36.866 : en:01:15:36.866
01:22:36.034 : en:01:22:36.034
01:30:04.149 : en:01:30:04.149
01:37:07.572 : en:01:37:07.572
01:46:02.189 : en:01:46:02.189
01:54:13.013 : en:01:54:13.013

[Цитировать]

Топик был перенесен из форума Новинки кинопроката 2016 (HD Video) в форум Архив
D-r Woland_kz



Показать сообщения:    

Текущее время: 25-Мар 13:55

Часовой пояс: UTC + 6


Вы не можете начинать темы
Вы не можете отвечать на сообщения
Вы не можете редактировать свои сообщения
Вы не можете удалять свои сообщения
Вы не можете голосовать в опросах
Вы не можете прикреплять файлы к сообщениям
Вы не можете скачивать файлы

!ВНИМАНИЕ!
Сайт не предоставляет электронные версии произведений, а занимается лишь коллекционированием и каталогизацией ссылок, присылаемых и публикуемых на форуме нашими читателями. Если вы являетесь правообладателем какого-либо представленного материала и не желаете, чтобы ссылка на него находилась в нашем каталоге, свяжитесь с нами, и мы незамедлительно удалим ее. Файлы для обмена на трекере предоставлены пользователями сайта, и администрация не несет ответственности за их содержание. Просьба не заливать файлы, защищенные авторскими правами, а также файлы нелегального содержания!