[ Сегодня идет свободное скачивание без начисления Download ]


Статистика раздачи
Нет
 
   
 
Top  
 
 
-Восьмидесятые (2013) DVB (Сезон 3, серии 1-15 из 20) (обновляемая)- Русское название: Восьмидесятые
Производство: "ГудСториМедиа", "ЛЕАН-М", Россия
Год выпуска: 2013
Жанр: Комедия, Мелодрама
Режиссер: Фёдор Стуков
Актеры: Александр Якин, Наталья Земцова, Александр Половцев, Мария Аронова, Леонид Громов, Дмитрий Белоцерковский, Юлия Сулес, Александр Новицкий, Роман Фомин, Ирина Чипиженко, Александр Мальков, Никита Ефремов, Анастасия Балякина, Артур Ваха, Юрий Королев, Николай Надежкин, Дмитрий Шевченко, Зоя Давыдова, Олег Балашов, Анна Цуканова-Котт, Наталья Карпунина, Игорь Лагутин, Роман Маякин, Елена Лебедева, Виктория Левкина, Олег Смирнов, Олег Комаров, Эдуард Чемодаков, Игорь Бондаренко, Илья Соболев, Дмитрий Собачкин, Максим Ратинер, Алексей Паничев, Екатерина Коновалова, Руслан Спояло, Сергей Климков
Описание фильма:
Эта история началась еще в 1986 году. Уже шла перестройка, но Советский Союз еще не распался. Это было время, когда не было интернета, гипермаркетов и даже мобильных телефонов, но зато воду пили из-под крана, в Москве не было пробок, а ключи от квартиры спокойно оставляли под ковриком.

Дата российской премьеры: 21.10.2013
Продолжительность: 15 x ~ 00:25:00
Качество видео: DVBRip
Видеокодек: AVC/H.264
Битрейт видео: ~3500 Kbps
Размер кадра: 720x576 (4:3)
Аудиокодек: AC3
Битрейт аудио: 2 ch, 192 Kbps

MediaInfo:

Общее
Уникальный идентификатор : 222946223482902003526329938517213294023 (0xA7B9E17AC1DB1518A0D1B59CB58FADC7)
Полное имя : E:\DOWNLOADS\Восьмидесятые (3 сезон) 2013 DVB\Восьмидесятые - 01 серия.mkv
Формат : Matroska
Версия формата : Version 2
Размер файла : 672 Мбайт
Продолжительность : 24 м.
Общий поток : 3788 Кбит/сек
Дата кодирования : UTC 2013-10-24 14:41:26
Программа кодирования : mkvmerge v6.1.0 ('Old Devil') built on Mar 4 2013 09:10:42
Библиотека кодирования : libebml v1.3.0 + libmatroska v1.4.0
Видео
Идентификатор : 1
Формат : AVC
Формат/Информация : Advanced Video Codec
Профиль формата : [url=mailto:[email protected]][email protected][/url]
Параметр CABAC формата : Да
Параметр ReFrames формата : 3 кадра
Идентификатор кодека : V_MPEG4/ISO/AVC
Продолжительность : 24 м.
Битрейт : 3520 Кбит/сек
Ширина : 720 пикселей
Высота : 576 пикселей
Соотношение сторон : 4:3
Соотношение сторон в оригинале : 4:3
Режим частоты кадров : Постоянный
Частота кадров : 25,000 кадров/сек
Стандарт вещания : Component
Цветовое пространство : YUV
Субдискретизация насыщенности : 4:2:0
Битовая глубина : 8 бит
Тип развёртки : Чересстрочная
Порядок развёртки : Верхнее поле первое
Бит/(Пиксели*Кадры) : 0.340
Размер потока : 625 Мбайт (93%)
Default : Да
Forced : Нет
Основные цвета : BT.601 PAL
Характеристики трансфера : BT.470 System B, BT.470 System G
Коэффициенты матрицы : BT.601
Аудио
Идентификатор : 2
Формат : AC-3
Формат/Информация : Audio Coding 3
Расширение режима : CM (complete main)
Параметр Endianness формата : Big
Идентификатор кодека : A_AC3
Продолжительность : 24 м.
Вид битрейта : Постоянный
Битрейт : 192 Кбит/сек
Каналы : 2 канала
Расположение каналов : Front: L R
Частота : 48,0 КГц
Битовая глубина : 16 бит
Метод сжатия : С потерями
Задержка видео : -40 мс.
Размер потока : 34,1 Мбайт (5%)
Default : Да
Forced : Нет

Описание обновления торрента

Внимание! Раздача ведётся путём добавления новых серий; при каждом добавлении создаётся новый торрент. Чтобы начать скачивание новой серии, пользователям необходимо сделать следующее:
1. Остановить скачивание.
2. Удалить старый торрент у себя из клиента (старые серии удалять не нужно).
3. Скачать новый торрент и запустить его у себя в клиенте вместо старого, при этом указать клиенту путь в старую папку, куда и должно происходить скачивание новых серий.
Ваш клиент при этом должен произвести хеширование (проверку) старой папки (если не производит сам - помогите ему сделать это), и будет докачивать только те серии, которых у вас ещё нет. Старые серии при этом не удаляются, а продолжают раздаваться!
Если вы уже удалили старые серии, то предотвратить повторную закачку старых серий можно, отжав галочку в соответствующих местах при запуске нового торрента. По возможности, желательно не удалять старые серии как можно дольше, чтобы релизёр смог сконцентрироваться на новых сериях, а не продолжал раздавать старые.
Скриншоты:

[Цитировать]



Показать сообщения:    

Текущее время: 05-Дек 07:31

Часовой пояс: UTC + 3


Вы не можете начинать темы
Вы не можете отвечать на сообщения
Вы не можете редактировать свои сообщения
Вы не можете удалять свои сообщения
Вы не можете голосовать в опросах
Вы не можете прикреплять файлы к сообщениям
Вы не можете скачивать файлы

!ВНИМАНИЕ!
Сайт не предоставляет электронные версии произведений, а занимается лишь коллекционированием и каталогизацией ссылок, присылаемых и публикуемых на форуме нашими читателями. Если вы являетесь правообладателем какого-либо представленного материала и не желаете, чтобы ссылка на него находилась в нашем каталоге, свяжитесь с нами, и мы незамедлительно удалим ее. Файлы для обмена на трекере предоставлены пользователями сайта, и администрация не несет ответственности за их содержание. Просьба не заливать файлы, защищенные авторскими правами, а также файлы нелегального содержания!