[ Сегодня идет свободное скачивание без начисления Download ]


Статистика раздачи
Нет
 
   
 
Top  
 
 
-Монтаж / Montage / Mong-ta-joo (2013) DVDRip- Год выпуска: 2013
Производство: Южная Корея
Жанр: Детектив, Криминал, Триллер
Перевод: Двуголосый закадровый, любительский
Озвучка / Автор перевода: DeadSno & den904
Субтитры: Отсутствуют
Дата мировой премьеры: 16.05.2013
Режиссер: Чон Гын Соп
Продюсер: Чон Гын Соп
Актеры: Ом Чон Хва, Ким Сан Кён, Сон Ён Чан, Чо Хи Бон, Ю Сын Мок, Ли Чжун Хёк, Пак Чоль Мин
Описание фильма:
15 лет назад была похищена девочка, и похититель исчез без следа. За пять дней до момента окончания срока давности привлечения к уголовной ответственности похитителя, кто-то оставляет цветок на месте того совершенного 15 лет назад преступления. Несколько дней спустя таким же способом было совершено еще одно похищение. Теперь, три человека пытаются любым способом найти похитителя: мать, чья дочь была похищена 15 лет назад; дедушка, внучку которого украли практически у него на глазах, и детектив, который расследовал первое похищение.-
Продолжительность: 02:00:09
Качество видео: DVDRip
Видеокодек: Xvid
Битрейт видео: ~1438 kbps
Размер кадра: 720x384
Аудиокодек: AC3 2.0
Битрейт аудио: 192 kbps
Сэмпл: Скачать

MediaInfo:

бщее
Полное имя : D:\Фильмы\Montage.2013.VDRip_by_Bathory.avi
Формат : AVI
Формат/Информация : Audio Video Interleave
Размер файла : 1,38 Гбайт
Продолжительность : 2 ч. 0 м.
Общий поток : 1641 Кбит/сек
Программа кодирования : VirtualDubMod 1.5.10.3 | www.virtualdub-fr.org || (build 2550/release)
Библиотека кодирования : VirtualDubMod build 2550/release
Видео
Идентификатор : 0
Формат : MPEG-4 Visual
Профиль формата : Advanced [email protected]
Параметр BVOP формата : 1
Параметр QPel формата : Нет
Параметр GMC формата : Без точки перехода
Параметр матрицы формата : Default (MPEG)
Идентификатор кодека : XVID
Идентификатор кодека/Подсказка : XviD
Продолжительность : 2 ч. 0 м.
Битрейт : 1438 Кбит/сек
Ширина : 720 пикселей
Высота : 384 пикселя
Соотношение сторон : 1,85:1
Частота кадров : 29,970 кадров/сек
Цветовое пространство : YUV
Субдискретизация насыщенности : 4:2:0
Битовая глубина : 8 бит
Тип развёртки : Прогрессивная
Метод сжатия : С потерями
Бит/(Пиксели*Кадры) : 0.173
Размер потока : 1,21 Гбайт (88%)
Библиотека кодирования : XviD 1.2.1 (UTC 2008-12-04)
Аудио
Идентификатор : 1
Формат : AC-3
Формат/Информация : Audio Coding 3
Расширение режима : CM (complete main)
Параметр Endianness формата : Big
Идентификатор кодека : 2000
Продолжительность : 2 ч. 0 м.
Вид битрейта : Постоянный
Битрейт : 192 Кбит/сек
Каналы : 2 канала
Расположение каналов : Front: L R
Частота : 48,0 КГц
Битовая глубина : 16 бит
Метод сжатия : С потерями
Размер потока : 165 Мбайт (12%)
Выравнивание : Разделение по промежуткам
Продолжительность промежутка : 33 мс. (1,00 видеокадр)
Время предзагрузки промежутка : 500 мс.
Скриншоты: !ФИЛЬМ СОДЕРЖИТ НЕНОРМАТИВНУЮ ЛЕКСИКУ!
Время раздачи: 24/7

[Цитировать]



Показать сообщения:    

Текущее время: 05-Дек 01:32

Часовой пояс: UTC + 3


Вы не можете начинать темы
Вы не можете отвечать на сообщения
Вы не можете редактировать свои сообщения
Вы не можете удалять свои сообщения
Вы не можете голосовать в опросах
Вы не можете прикреплять файлы к сообщениям
Вы не можете скачивать файлы

!ВНИМАНИЕ!
Сайт не предоставляет электронные версии произведений, а занимается лишь коллекционированием и каталогизацией ссылок, присылаемых и публикуемых на форуме нашими читателями. Если вы являетесь правообладателем какого-либо представленного материала и не желаете, чтобы ссылка на него находилась в нашем каталоге, свяжитесь с нами, и мы незамедлительно удалим ее. Файлы для обмена на трекере предоставлены пользователями сайта, и администрация не несет ответственности за их содержание. Просьба не заливать файлы, защищенные авторскими правами, а также файлы нелегального содержания!