[ Сегодня идет свободное скачивание без начисления Download ]


Статистика раздачи
Нет
 
   
 
Top  
 
 
11.6 / 11.6-Год выпуска: 2013
Страна: Франция
Жанр: Триллер
Студия: Canal+, Centre National de la Cin?matographie
Продолжительность: 01:41:45
Перевод: Профессиональный (двухголосый закадровый, НТВ+)
Оригинальный звук: есть (французский)
Cубтитры: есть (русские, французские)-Режиссер: Филипп Годо
В ролях: Франсуа Клюзе, Боли Ланнерс, Корина Масьеро, Хуана Акоста, Жоан Либеро, Мирей Франчино, Стефан Войтович, Жан-Клод Лека, Эрик Бернард, Карим Леклу

Сюжет: Тони Мюзилен работает водителем инкассаторского фургона. Не желая мириться с несправедливостью начальства, которое обкрадывает его годами, он решается на очень рискованный поступок - угнать бронированный фургон с 11,6 миллионами евро на борту. Тони, тщательно готовится и разрабатывает план ограбления, просчитывая все нюансы. В день похищения он становится самым известным человеком в стране. Газеты и телевидение сходят с ума, взахлеп рассказывая об одном из самых хитроумных и дерзких похищений всех времен. Весь этот цирк — это протест, месть Тони за унижения, которые он терпел годами от своего босса и системы.
Описание: Фильм «11.6» снят по мотивам романа Алис Жеро-Арфи «Тони 11,6 : История конвоира» (Toni 11,6 : Histoire du convoyeur).-Тип релиза: BDRip 1080p
Контейнер: MKV
Видео: H.264 / 1920x808 (2.40:1) / 23.976 fps / 9 256 kbps / High@L4.1
Аудио №1: AC3 / 2.0 / 16 bit / 48 kHz / 192 kbps / Русский (DVO)
Аудио №2: DTS / 5.1 / 24 bit / 48 kHz / 1510 kbps / Французский (Original)
Навигация по главам: есть
Аппаратная совместимость: Рип полностью совместим с железными медиаплеерами, проверено на плазменном телевизоре Panasonic TX-PR42ST50.

MediaInfo

General
Unique ID : 211444779869534727827639585725865536369 (0x9F12C8873BF5D4CFBA2BB4E3500C2B71)
Complete name : G:\КИНО\Фильмы 2000-х\11.6 (2013)\11.6.2013.FRENCH.RUS.1080p.BluRay.x264.DTS.AC3.mkv
Format : Matroska
Format version : Version 4 / Version 2
File size : 7.79 GiB
Duration : 1h 41mn
Overall bit rate : 11.0 Mbps
Encoded date : UTC 2013-11-17 10:18:08
Writing application : mkvmerge v6.5.0 ('Isn't she lovely') built on Oct 20 2013 12:50:05
Writing library : libebml v1.3.0 + libmatroska v1.4.1
Video
ID : 1
Format : AVC
Format/Info : Advanced Video Codec
Format profile : High@L4.1
Format settings, CABAC : Yes
Format settings, ReFrames : 5 frames
Codec ID : V_MPEG4/ISO/AVC
Duration : 1h 41mn
Bit rate : 9 256 Kbps
Width : 1 920 pixels
Height : 808 pixels
Display aspect ratio : 2.40:1
Frame rate mode : Constant
Frame rate : 23.976 fps
Color space : YUV
Chroma subsampling : 4:2:0
Bit depth : 8 bits
Scan type : Progressive
Bits/(Pixel*Frame) : 0.249
Stream size : 6.43 GiB (82%)
Writing library : x264 core 133 r2334 a3ac64b
Encoding settings : cabac=1 / ref=5 / deblock=1:0:0 / analyse=0x3:0x113 / me=umh / subme=8 / psy=1 / psy_rd=1.00:0.00 / mixed_ref=1 / me_range=16 / chroma_me=1 / trellis=1 / 8x8dct=1 / cqm=0 / deadzone=21,11 / fast_pskip=1 / chroma_qp_offset=-2 / threads=12 / lookahead_threads=2 / sliced_threads=0 / nr=0 / decimate=1 / interlaced=0 / bluray_compat=0 / constrained_intra=0 / bframes=3 / b_pyramid=2 / b_adapt=2 / b_bias=0 / direct=3 / weightb=1 / open_gop=0 / weightp=2 / keyint=240 / keyint_min=24 / scenecut=40 / intra_refresh=0 / rc_lookahead=50 / rc=2pass / mbtree=1 / bitrate=9256 / ratetol=1.0 / qcomp=0.60 / qpmin=0 / qpmax=69 / qpstep=4 / cplxblur=20.0 / qblur=0.5 / ip_ratio=1.40 / aq=1:1.00
Language : French
Default : Yes
Forced : No
Audio #1
ID : 2
Format : AC-3
Format/Info : Audio Coding 3
Mode extension : CM (complete main)
Format settings, Endianness : Big
Codec ID : A_AC3
Duration : 1h 41mn
Bit rate mode : Constant
Bit rate : 192 Kbps
Channel count : 2 channels
Channel positions : Front: L R
Sampling rate : 48.0 KHz
Bit depth : 16 bits
Compression mode : Lossy
Delay relative to video : 28ms
Stream size : 140 MiB (2%)
Title : Russian (DVO)
Language : Russian
Default : Yes
Forced : No
Audio #2
ID : 3
Format : DTS
Format/Info : Digital Theater Systems
Mode : 16
Format settings, Endianness : Big
Codec ID : A_DTS
Duration : 1h 41mn
Bit rate mode : Constant
Bit rate : 1 509 Kbps
Channel count : 6 channels
Channel positions : Front: L C R, Side: L R, LFE
Sampling rate : 48.0 KHz
Bit depth : 24 bits
Compression mode : Lossy
Stream size : 1.07 GiB (14%)
Title : French (Original)
Language : French
Default : No
Forced : No
Text #1
ID : 4
Format : UTF-8
Codec ID : S_TEXT/UTF8
Codec ID/Info : UTF-8 Plain Text
Title : Russian
Language : Russian
Default : No
Forced : No
Text #2
ID : 5
Format : UTF-8
Codec ID : S_TEXT/UTF8
Codec ID/Info : UTF-8 Plain Text
Title : French
Language : French
Default : No
Forced : No
Menu
00:00:00.000 : en:00:00:00.000
00:06:41.568 : en:00:06:41.568
00:10:34.634 : en:00:10:34.634
00:16:38.414 : en:00:16:38.414
00:23:29.366 : en:00:23:29.366
00:31:15.832 : en:00:31:15.832
00:40:09.949 : en:00:40:09.949
00:45:38.194 : en:00:45:38.194
00:50:54.260 : en:00:50:54.260
00:54:49.161 : en:00:54:49.161
01:04:55.975 : en:01:04:55.975
01:13:37.913 : en:01:13:37.913
01:17:38.654 : en:01:17:38.654
01:26:39.403 : en:01:26:39.403
01:32:25.290 : en:01:32:25.290
01:36:15.186 : en:01:36:15.186

Скриншоты

-

Дополнительно

ВСЕ МОИ РАЗДАЧИ

[Цитировать]



Показать сообщения:    

Текущее время: 08-Дек 01:15

Часовой пояс: UTC + 3


Вы не можете начинать темы
Вы не можете отвечать на сообщения
Вы не можете редактировать свои сообщения
Вы не можете удалять свои сообщения
Вы не можете голосовать в опросах
Вы не можете прикреплять файлы к сообщениям
Вы не можете скачивать файлы

!ВНИМАНИЕ!
Сайт не предоставляет электронные версии произведений, а занимается лишь коллекционированием и каталогизацией ссылок, присылаемых и публикуемых на форуме нашими читателями. Если вы являетесь правообладателем какого-либо представленного материала и не желаете, чтобы ссылка на него находилась в нашем каталоге, свяжитесь с нами, и мы незамедлительно удалим ее. Файлы для обмена на трекере предоставлены пользователями сайта, и администрация не несет ответственности за их содержание. Просьба не заливать файлы, защищенные авторскими правами, а также файлы нелегального содержания!