[ Сегодня идет свободное скачивание без начисления Download ]


Статистика раздачи
Нет
 
   
 
Top  
 
 
-Пепел (2013) SATRip (1-10 серия из 10)- Русское название: Пепел
Год выпуска: 2013
Производство: Россия, Украина "WeiT Media"
Жанр: Военный, История
Дата российской премьеры: 27 сентября 2013
Режиссер: Вадим Перельман
Актеры: Владимир Машков, Евгений Миронов, Елена Лядова, Сергей Гармаш, Чулпан Хаматова, Андрей Смоляков, Пётр Мамонов, Владимир Гостюхин, Ирина Розанова, Сергей Чонишвили, Сергей Фролов, Юлия Марченко, Александр Стекольников, Юрий Архангельский, Александр Дьяченко, Константин Балакирев, Карина Андоленко, Фархад Махмудов, Алексей Телеш, Олег Новиков, Владимир Бирюков, Николай Смирнов, Лена Петрова
Описание фильма:
СССР, 1938 год. В купе поезда встречаются вор Сенька Пепел (Евгений Миронов) и капитан Красной армии Игорь Петров (Владимир Машков), которому грозит арест. Неожиданно перед красноармейцем открывается фантастический шанс избежать верной смерти: он меняется с Пеплом одеждой, документами и забирает воровской «общак». Однако Петров изменил не только свою жизнь, но и судьбу любимой женщины Риты (Елена Лядова), которой предстоят поиски мужа, мучительное ожидание и встреча с Пеплом, которого все теперь принимают за Петрова. Основное действие картины разворачивается в 1948-м году, когда бывший вор, уже ставший полковником, вынужден участвовать в поимке бывшего капитана, ставшего опасным преступником. Спустя 10 лет им предстоит вновь встретиться и разобраться в том, как и почему изменились их судьбы.

Продолжительность: 00:42:37 серия
Качество видео: SATRip
Видеокодек: XviD/DivX
Битрейт видео: 1700 kbps
Размер кадра: 720х416, 720x400
Аудиокодек: MP3, 2 ch
Битрейт аудио: 128-192 kbps

MI

Общее
Полное имя                               : D:\НЕ УДАЛЯТЬ!!!\Pepel.2013.SATRip.NNM-CLUB\01.serija.avi
Формат                                   : AVI
Формат/Информация                        : Audio Video Interleave
Размер файла                             : 580 Мбайт
Продолжительность                        : 42 м.
Общий поток                              : 1902 Кбит/сек
Программа кодирования                    : VirtualDubModRus 1.5.10.2 (build 2542/release)
Библиотека кодирования                   : VirtualDubMod build 2542/release
Видео
Идентификатор                            : 0
Формат                                   : MPEG-4 Visual
Профиль формата                          : Advanced Simple@L5
Параметр BVOP формата                    : 1
Параметр QPel формата                    : Нет
Параметр GMC формата                     : Без точки перехода
Параметр матрицы формата                 : Default (H.263)
Идентификатор кодека                     : XVID
Идентификатор кодека/Подсказка           : XviD
Продолжительность                        : 42 м.
Битрейт                                  : 1700 Кбит/сек
Ширина                                   : 720 пикселей
Высота                                   : 416 пикселей
Соотношение сторон                       : 1,731
Частота кадров                           : 25,000 кадров/сек
Цветовое пространство                    : YUV
Субдискретизация насыщенности            : 4:2:0
Битовая глубина                          : 8 бит
Тип развёртки                            : Прогрессивная
Метод сжатия                             : С потерями
Бит/(Пиксели*Кадры)                      : 0.227
Размер потока                            : 518 Мбайт (89%)
Библиотека кодирования                   : XviD 1.2.1 (UTC 2008-12-04)
Аудио
Идентификатор                            : 1
Формат                                   : MPEG Audio
Версия формата                           : Version 1
Профиль формата                          : Layer 3
Режим                                    : Joint stereo
Расширение режима                        : MS Stereo
Идентификатор кодека                     : 55
Идентификатор кодека/Подсказка           : MP3
Продолжительность                        : 42 м.
Вид битрейта                             : Постоянный
Битрейт                                  : 192 Кбит/сек
Каналы                                   : 2 канала
Частота                                  : 48,0 КГц
Метод сжатия                             : С потерями
Размер потока                            : 58,5 Мбайт (10%)
Выравнивание                             : Соединение по промежуткам
Продолжительность промежутка             : 40  мс. (1,00 видеокадр)
Время предзагрузки промежутка            : 504  мс.
Библиотека кодирования                   : LAME3.99r
Настройки программы                      : -m j -V 4 -q 2 -lowpass 18.6 -b 192
Скриншоты:

[Цитировать]



Показать сообщения:    

Текущее время: 07-Дек 17:32

Часовой пояс: UTC + 3


Вы не можете начинать темы
Вы не можете отвечать на сообщения
Вы не можете редактировать свои сообщения
Вы не можете удалять свои сообщения
Вы не можете голосовать в опросах
Вы не можете прикреплять файлы к сообщениям
Вы не можете скачивать файлы

!ВНИМАНИЕ!
Сайт не предоставляет электронные версии произведений, а занимается лишь коллекционированием и каталогизацией ссылок, присылаемых и публикуемых на форуме нашими читателями. Если вы являетесь правообладателем какого-либо представленного материала и не желаете, чтобы ссылка на него находилась в нашем каталоге, свяжитесь с нами, и мы незамедлительно удалим ее. Файлы для обмена на трекере предоставлены пользователями сайта, и администрация не несет ответственности за их содержание. Просьба не заливать файлы, защищенные авторскими правами, а также файлы нелегального содержания!