[ Сегодня идет свободное скачивание без начисления Download ]


Статистика раздачи
Нет
 
   
 
Top  
 
 
-Малавита / The Family (2013) DVDRip-«Некоторые называют их организованной преступной группировкой. Другие – семьей»- Год выпуска: 2013
Производство: США, Франция / EuropaCorp, Malavita, Relativity Media
Жанр: Боевик, Комедия, Криминал
Перевод: Дублированный (лицензия)
Субтитры: Отсутствуют
Режиссер: Люк Бессон
Продюсер: Райан Кэвэна, Виржини Силла, Люк Бессон
Актеры: Роберт Де Ниро, Мишель Пфайффер, Томми Ли Джонс, Диана Агрон, Джон Фреда, Рикардо Сорберо, Доминик Кьянезе, Дэвид Белль, Джон Д’Лео, Джино Кафарелли
Описание фильма:
Что вы знаете о своих соседях? Особенно о тех, которые заявляются среди ночи… Так, однажды на тихой улочке провинциального французского городка поселился писатель по фамилии Блейк, со своим семейством и собакой Малавитой. На этом многовековое спокойствие города закончилось. Почему сгорел местный супермаркет? Чем рискует медлительный водопроводчик? Что лежит в рюкзаке у милого парня в бежевых бриджах? Кто бы мог представить, что на самом деле мистер Блейк — бывший глава мафии, которого власти прячут здесь от преследования. И вот в городок приезжают люди «Коза Ностры»…

Дата мировой премьеры: 10 сентября 2013
Дата российской премьеры: 19 сентября 2013, «Парадиз»
Дата выхода DVD релиза: 19 ноября 2013, «Парадиз / Активижен»
Продолжительность: 01:46:56
Качество видео: DVDRip
Видеокодек: Xvid
Битрейт видео: ~1440 Kbps 25.00 fps
Размер кадра: 720x304
Аудиокодек: AC3 5.1
Битрейт аудио: 384 Kbps 48000 Hz
Сэмпл: Скачать

MediaInfo:

Общее
Полное имя                               : Malavita.2013.D.DVDRip.1400MB.nnm-club.avi
Формат                                   : AVI
Формат/Информация                        : Audio Video Interleave
Размер файла                             : 1,37 Гбайт
Продолжительность                        : 1 ч. 46 м.
Общий поток                              : 1835 Кбит/сек
Программа кодирования                    : VirtualDubMod 1.5.10.3 || (build 2550/release)
Библиотека кодирования                   : VirtualDubMod build 2550/release
Видео
Идентификатор                            : 0
Формат                                   : MPEG-4 Visual
Профиль формата                          : Advanced Simple@L5
Параметр BVOP формата                    : 1
Параметр QPel формата                    : Нет
Параметр GMC формата                     : Без точки перехода
Параметр матрицы формата                 : Default (MPEG)
Идентификатор кодека                     : XVID
Идентификатор кодека/Подсказка           : XviD
Продолжительность                        : 1 ч. 46 м.
Битрейт                                  : 1441 Кбит/сек
Ширина                                   : 720 пикселей
Высота                                   : 304 пикселя
Соотношение сторон                       : 2,35:1
Частота кадров                           : 25,000 кадров/сек
Цветовое пространство                    : YUV
Субдискретизация насыщенности            : 4:2:0
Битовая глубина                          : 8 бит
Тип развёртки                            : Прогрессивная
Метод сжатия                             : С потерями
Бит/(Пиксели*Кадры)                      : 0.263
Размер потока                            : 1,08 Гбайт (79%)
Библиотека кодирования                   : XviD 1.2.1 (UTC 2008-12-04)
Аудио
Идентификатор                            : 1
Формат                                   : AC-3
Формат/Информация                        : Audio Coding 3
Расширение режима                        : CM (complete main)
Параметр Endianness формата              : Big
Идентификатор кодека                     : 2000
Продолжительность                        : 1 ч. 46 м.
Вид битрейта                             : Постоянный
Битрейт                                  : 384 Кбит/сек
Каналы                                   : 6 каналов
Расположение каналов                     : Front: L C R, Side: L R, LFE
Частота                                  : 48,0 КГц
Битовая глубина                          : 16 бит
Метод сжатия                             : С потерями
Размер потока                            : 294 Мбайт (21%)
Выравнивание                             : Разделение по промежуткам
Продолжительность промежутка             : 40  мс. (1,00 видеокадр)
Время предзагрузки промежутка            : 500  мс.
Скриншоты:

[Цитировать]



Показать сообщения:    

Текущее время: 08-Дек 19:07

Часовой пояс: UTC + 3


Вы не можете начинать темы
Вы не можете отвечать на сообщения
Вы не можете редактировать свои сообщения
Вы не можете удалять свои сообщения
Вы не можете голосовать в опросах
Вы не можете прикреплять файлы к сообщениям
Вы не можете скачивать файлы

!ВНИМАНИЕ!
Сайт не предоставляет электронные версии произведений, а занимается лишь коллекционированием и каталогизацией ссылок, присылаемых и публикуемых на форуме нашими читателями. Если вы являетесь правообладателем какого-либо представленного материала и не желаете, чтобы ссылка на него находилась в нашем каталоге, свяжитесь с нами, и мы незамедлительно удалим ее. Файлы для обмена на трекере предоставлены пользователями сайта, и администрация не несет ответственности за их содержание. Просьба не заливать файлы, защищенные авторскими правами, а также файлы нелегального содержания!