[ Сегодня идет свободное скачивание без начисления Download ]


Статистика раздачи
Нет
 
   
 
Top  
 
 
-Ненависть / La haine (1995) BDRemux [1080p]«Пока всё хорошо...»- Год выпуска: 1995
Производство: Франция, Canal+ [fr], Cofinergie 6, Egg Pictures, Kasso Inc. Productions, La Sept Cin?ma, Les Productions Lazennec, PolyGram Filmed Entertainment, Studio Image
Жанр: Драма
Перевод: Профессиональный (многоголосый закадровый) Студия "Нота", Профессиональный (многоголосый закадровый) "Селена Интернешнл", Авторский (одноголосый, закадровый) Юрий Сербин
Субтитры: Вшитые отключаемые
Язык субтитров: Русский, Английский (Criterion Collection), Французский-Режиссер: Матьё Кассовиц / Mathieu Kassovitz
Сценарий: Матьё Кассовиц
Продюсер: Аделин Лекалье, Ален Рокка, Христоф Россигнон
Актеры: Венсан Кассель, Юбер Кунде, Саид Тагмауи, Карим Белхадра, Франсуа Леванталь, Эдуард Монтут, Бенуа Мажимель, Венсан Линдон, Карин Вьяр, Петер Кассовиц, Матьё Кассовиц-Описание фильма:
Париж, наши дни. После беспорядков, спровоцированных полицейским произволом в отношении арабского подростка Абделя, в бедных кварталах, вдали от туристических маршрутов, трое друзей находят револьвер. Еврейский юноша, чернокожий боксер и молодой араб хотят жестоко отомстить. Ненависть порождает ненависть.- -Дата мировой премьеры: 31 мая 1995
Дата выхода DVD релиза: 23 февраля 2012, «Новый Диск»-Возраст: 18+
Рейтинг MPAA: PG-17-Продолжительность: 01:37:51
Качество видео: BDRemux-Видео: MPEG4_AVC/H.264, 1920х1080, 26875 kbps, 23.976 fps, 16:9, High Profile 4.1
Аудио 1: Русский, DTS-HD Master Audio, 5.1, 48 kHz, 3438 kbps, 24 bit (DTS Core: 5.1, 48 kHz, 1509 kbps, 24 bit) (Юрий Сербин)
Аудио 2: Русский, AC3, 2.0, 48.0 kHz, 192 kbps, 16 bit (Студия "Нота")
Аудио 3: Русский, AC3, 5.1, 48.0 kHz, 384 kbps, 16 bit ("Селена Интернешнл")
Аудио 4: Французский, DTS-HD Master Audio, 5.1, 48 kHz, 3419 kbps, 24 bit (DTS Core: 5.1, 48 kHz, 1509 kbps, 24 bit)-

MediaInfo

Общее
Уникальный идентификатор : 201005175321299241057591715989503368534 (0x97383048EDD90710AD2AEBA33F285D56)
Полное имя : D:\Видео\La Haine.1995.BDRemux.1080p.CriterionCollection.3xRUS.FRE.mkv
Формат : Matroska
Версия формата : Version 2
Размер файла : 23,5 Гбайт
Продолжительность : 1 ч. 37 м.
Режим общего битрейта : Переменный
Общий поток : 34,3 Мбит/сек
Название фильма : La Haine 1995 Criterion Collection 1080p Blu-ray Remux DTS-HD MA 5.1
Дата кодирования : UTC 2013-01-25 09:10:52
Программа кодирования : mkvmerge v5.6.0 ('Kenya Kane') built on May 27 2012 16:44:04
Библиотека кодирования : libebml v1.2.3 + libmatroska v1.3.0
Attachment : Yes
Видео
Идентификатор : 1
Формат : AVC
Формат/Информация : Advanced Video Codec
Профиль формата : High@L4.1
Параметр CABAC формата : Да
Параметр ReFrames формата : 4 кадра
Идентификатор кодека : V_MPEG4/ISO/AVC
Продолжительность : 1 ч. 37 м.
Вид битрейта : Переменный
Максимальный битрейт : 36,0 Мбит/сек
Ширина : 1920 пикселей
Высота : 1080 пикселей
Соотношение сторон : 16:9
Режим частоты кадров : Постоянный
Частота кадров : 23,976 кадра/сек
Цветовое пространство : YUV
Субдискретизация насыщенности : 4:2:0
Битовая глубина : 8 бит
Тип развёртки : Прогрессивная
Язык : French
Default : Да
Forced : Нет
Аудио #1
Идентификатор : 2
Формат : DTS
Формат/Информация : Digital Theater Systems
Профиль формата : MA / Core
Режим : 16
Параметр Endianness формата : Big
Идентификатор кодека : A_DTS
Продолжительность : 1 ч. 37 м.
Вид битрейта : Переменный
Битрейт : Неизвестно / 1509 Кбит/сек
Каналы : 6 каналов
Расположение каналов : Front: L C R, Side: L R, LFE
Частота : 48,0 КГц
Битовая глубина : 24 бит
Метод сжатия : Без потерь / Lossy
Заголовок : Ю. Сербин
Язык : Russian
Default : Да
Forced : Нет
Аудио #2
Идентификатор : 3
Формат : AC-3
Формат/Информация : Audio Coding 3
Расширение режима : CM (complete main)
Параметр Endianness формата : Big
Идентификатор кодека : A_AC3
Продолжительность : 1 ч. 37 м.
Вид битрейта : Постоянный
Битрейт : 192 Кбит/сек
Каналы : 2 канала
Расположение каналов : Front: L R
Частота : 48,0 КГц
Битовая глубина : 16 бит
Метод сжатия : С потерями
Задержка видео : 18 с.
Размер потока : 134 Мбайт (1%)
Заголовок : Студия "Нота"
Язык : Russian
Default : Нет
Forced : Нет
Аудио #3
Идентификатор : 4
Формат : AC-3
Формат/Информация : Audio Coding 3
Расширение режима : CM (complete main)
Параметр Endianness формата : Big
Идентификатор кодека : A_AC3
Продолжительность : 1 ч. 37 м.
Вид битрейта : Постоянный
Битрейт : 384 Кбит/сек
Каналы : 6 каналов
Расположение каналов : Front: L C R, Side: L R, LFE
Частота : 48,0 КГц
Битовая глубина : 16 бит
Метод сжатия : С потерями
Задержка видео : 18 с.
Размер потока : 269 Мбайт (1%)
Заголовок : Селена Интернешнл
Язык : Russian
Default : Нет
Forced : Нет
Аудио #4
Идентификатор : 5
Формат : DTS
Формат/Информация : Digital Theater Systems
Профиль формата : MA / Core
Режим : 16
Параметр Endianness формата : Big
Идентификатор кодека : A_DTS
Продолжительность : 1 ч. 37 м.
Вид битрейта : Переменный
Битрейт : Неизвестно / 1509 Кбит/сек
Каналы : 6 каналов
Расположение каналов : Front: L C R, Side: L R, LFE
Частота : 48,0 КГц
Битовая глубина : 24 бит
Метод сжатия : Без потерь / Lossy
Заголовок : Original
Язык : French
Default : Нет
Forced : Нет
Текст #1
Идентификатор : 6
Формат : UTF-8
Идентификатор кодека : S_TEXT/UTF8
Идентификатор кодека/Информация : UTF-8 Plain Text
Язык : Russian
Default : Нет
Forced : Нет
Текст #2
Идентификатор : 7
Формат : UTF-8
Идентификатор кодека : S_TEXT/UTF8
Идентификатор кодека/Информация : UTF-8 Plain Text
Заголовок : Criterion Collection
Язык : English
Default : Нет
Forced : Нет
Текст #3
Идентификатор : 8
Формат : UTF-8
Идентификатор кодека : S_TEXT/UTF8
Идентификатор кодека/Информация : UTF-8 Plain Text
Заголовок : Original
Язык : French
Default : Нет
Forced : Нет
Меню
00:00:00.000 : en:Rioting
00:05:42.342 : en:Sa?d and Vinz
00:09:54.677 : en:"You Talking to Me?"
00:15:09.575 : en:Roof Party
00:20:03.202 : en:Reporters in a Zoo
00:24:12.159 : en:Finding a Gun
00:29:09.498 : en:Visiting Abdel
00:33:51.112 : en:Vinz Is Packing
00:38:54.040 : en:Hubert's Trade
00:42:14.574 : en:Sa?d's Haircut
00:47:33.601 : en:Avenging His Brother
00:50:46.627 : en:The Old Man's Story
00:57:05.631 : en:Snoopy's Pad
01:03:29.389 : en:Getting Nabbed
01:06:24.564 : en:Boxing Match
01:12:36.102 : en:Tweety and Sylvester
01:19:11.872 : en:Trying to Catch a Ride
01:24:59.136 : en:Feeling Small
01:28:09.201 : en:Vinz's Revenge
01:34:27.662 : en:Going Home

Битрейт видео

-Скриншоты:
-Время раздачи: 24/7 (круглосуточно)-

[Цитировать]



Показать сообщения:    

Текущее время: 10-Дек 19:36

Часовой пояс: UTC + 3


Вы не можете начинать темы
Вы не можете отвечать на сообщения
Вы не можете редактировать свои сообщения
Вы не можете удалять свои сообщения
Вы не можете голосовать в опросах
Вы не можете прикреплять файлы к сообщениям
Вы не можете скачивать файлы

!ВНИМАНИЕ!
Сайт не предоставляет электронные версии произведений, а занимается лишь коллекционированием и каталогизацией ссылок, присылаемых и публикуемых на форуме нашими читателями. Если вы являетесь правообладателем какого-либо представленного материала и не желаете, чтобы ссылка на него находилась в нашем каталоге, свяжитесь с нами, и мы незамедлительно удалим ее. Файлы для обмена на трекере предоставлены пользователями сайта, и администрация не несет ответственности за их содержание. Просьба не заливать файлы, защищенные авторскими правами, а также файлы нелегального содержания!