[ Сегодня идет свободное скачивание без начисления Download ]


Статистика раздачи
Нет
 
   
 
Top  
 
 
-Перед полуночью / Before Midnight (2013) BDRip- Год выпуска: 2013
Производство: США - Castle Rock Entertainment, Detour Filmproduction, Faliro House Productions, Sony Pictures Classics, Venture Forth
Жанр: Драма, Мелодрама
Перевод: 2* Авторский (одноголосый)
Озвучка / Автор перевода: Михаил Чадов / Евгений Кудашев
Субтитры: Вшитые отключаемые
Язык субтитров: Английский (PGS)-Дата мировой премьеры: 20 января 2013
Дата российской премьеры: 11 июля 2013, «West»-Режиссер: Ричард Линклейтер
Продюсер: Христос Константакопулос, Ричард Линклейтер, Сара Вудхэтч
Актеры: Итан Хоук, Жюли Дельпи, Шеймас Дэви-Фицпатрик, Дженнифер Прайор, Шарлотта Прайор, Ксения Калогеропулу, Уолтер Лассали, Ариана Лабед, Яннис Пападопулос, Афина Рахель Цангари-Описание фильма:
Мы встречаем Джесси и Селин еще через 9 лет в Греции. Почти два десятилетия прошло с их первой встречи в поезде, направляющемся в Вену.-

-Продолжительность: 01:48:54
Качество видео: BDRip 720p [HDWinG]
Контейнер: MKV
Видеокодек: MPEG-4 AVC/H.264
Битрейт видео: ~7684 Mbps
Размер кадра: 1280x692
Аудио 1: Digital Theater Systems 1509 kbps 5.1 / 48 kHz/ 24-bit /Английский/
Аудио 1: Dolby Digital Audio 192 kbps 2.0 / 48 kHz / 16 bits /Комментарий/
Аудио 1: Dolby Digital Audio 448 kbps 5.1 / 48 kHz / 16 bits /Авторский (одноголосый) [М.Чадов, Евгений Кудашев]
Сохранены оригинальные чаптеры как на Blu-ray.-

Знаете ли Вы, что...

  • Фильм посвящен памяти Эми, женщины, чей образ послужил основой для фильма «Перед рассветом» (1995). Ричард Линклейтер провел ночь, гуляя и разговаривая с ней в Филадельфии, но, в конце концов, они потеряли контакт. В промежутке между фильмами «Перед закатом» (2004) и «Перед полуночью» (2013) он, наконец, узнал, что Эми умерла много лет назад в ДТП, поэтому он посвятил фильм ей.

MediaInfo:

Общее
Уникальный идентификатор : 182342880358243850914225072440915449328 (0x892DF61A8F67964585F34B4E5EC6D5F0)
Полное имя : Before.Midnight.2013.BDRip.720p-HDWinG .mkv
Формат : Matroska
Версия формата : Version 2
Размер файла : 7,53 Гбайт
Продолжительность : 1 ч. 48 м.
Общий поток : 9899 Кбит/сек
Название фильма : Before.Midnight.2013.BDRip.720p-HDWinG- Feel_1984
Дата кодирования : UTC 2013-11-20 11:25:21
Программа кодирования : mkvmerge v4.3.0 ('Escape from the Island') сборка от Sep 5 2010 10:30:51
Библиотека кодирования : libebml v1.0.0 + libmatroska v1.0.0
Видео
Идентификатор : 1
Формат : AVC
Формат/Информация : Advanced Video Codec
Профиль формата : [email protected]
Параметр CABAC формата : Да
Параметр ReFrames формата : 9 кадров
Режим смешивания : Header stripping
Идентификатор кодека : V_MPEG4/ISO/AVC
Продолжительность : 1 ч. 48 м.
Битрейт : 7694 Кбит/сек
Ширина : 1280 пикселей
Высота : 692 пикселя
Соотношение сторон : 1,85:1
Режим частоты кадров : Постоянный
Частота кадров : 23,976 кадра/сек
Цветовое пространство : YUV
Субдискретизация насыщенности : 4:2:0
Битовая глубина : 8 бит
Тип развёртки : Прогрессивная
Бит/(Пиксели*Кадры) : 0.362
Размер потока : 5,75 Гбайт (76%)
Библиотека кодирования : x264 core 132 r2309 3b1f1f7
Настройки программы : cabac=1 / ref=9 / deblock=1:-3:-3 / analyse=0x3:0x133 / me=umh / subme=10 / psy=1 / psy_rd=1.00:0.00 / mixed_ref=1 / me_range=48 / chroma_me=1 / trellis=2 / 8x8dct=1 / cqm=0 / deadzone=21,11 / fast_pskip=0 / chroma_qp_offset=-2 / threads=12 / lookahead_threads=1 / sliced_threads=0 / nr=0 / decimate=0 / interlaced=0 / bluray_compat=0 / constrained_intra=0 / bframes=8 / b_pyramid=2 / b_adapt=2 / b_bias=0 / direct=3 / weightb=1 / open_gop=0 / weightp=2 / keyint=360 / keyint_min=2 / scenecut=40 / intra_refresh=0 / rc_lookahead=60 / rc=2pass / mbtree=1 / bitrate=7694 / ratetol=1.0 / qcomp=0.70 / qpmin=0 / qpmax=69 / qpstep=4 / cplxblur=20.0 / qblur=0.5 / vbv_maxrate=50000 / vbv_bufsize=30000 / nal_hrd=none / ip_ratio=1.10 / aq=2:0.85
Default : Да
Forced : Нет
Аудио #1
Идентификатор : 2
Формат : DTS
Формат/Информация : Digital Theater Systems
Режим : 16
Параметр Endianness формата : Big
Режим смешивания : Header stripping
Идентификатор кодека : A_DTS
Продолжительность : 1 ч. 48 м.
Вид битрейта : Постоянный
Битрейт : 1509 Кбит/сек
Каналы : 6 каналов
Расположение каналов : Front: L C R, Side: L R, LFE
Частота : 48,0 КГц
Битовая глубина : 24 бит
Метод сжатия : С потерями
Задержка видео : 11 мс.
Размер потока : 1,15 Гбайт (15%)
Заголовок : English
Язык : English
Default : Нет
Forced : Нет
Аудио #2
Идентификатор : 3
Формат : AC-3
Формат/Информация : Audio Coding 3
Профиль формата : Dolby Digital
Расширение режима : CM (complete main)
Параметр Endianness формата : Big
Режим смешивания : Header stripping
Идентификатор кодека : A_AC3
Продолжительность : 1 ч. 48 м.
Вид битрейта : Постоянный
Битрейт : 192 Кбит/сек
Каналы : 2 канала
Расположение каналов : Front: L R
Частота : 48,0 КГц
Битовая глубина : 16 бит
Метод сжатия : С потерями
Размер потока : 150 Мбайт (2%)
Заголовок : Director Commentary in English
Язык : English
Default : Нет
Forced : Нет
Аудио #3
Идентификатор : 4
Формат : AC-3
Формат/Информация : Audio Coding 3
Расширение режима : CM (complete main)
Параметр Endianness формата : Big
Режим смешивания : Header stripping
Идентификатор кодека : A_AC3
Продолжительность : 1 ч. 48 м.
Вид битрейта : Постоянный
Битрейт : 448 Кбит/сек
Каналы : 6 каналов
Расположение каналов : Front: L C R, Side: L R, LFE
Частота : 48,0 КГц
Битовая глубина : 16 бит
Метод сжатия : С потерями
Размер потока : 349 Мбайт (5%)
Заголовок : Авторский (одноголосый) [М.Чадов, Евгений Кудашев]
Язык : Russian
Default : Да
Forced : Нет
Текст #1
Идентификатор : 5
Формат : PGS
Режим смешивания : zlib
Идентификатор кодека : S_HDMV/PGS
Идентификатор кодека/Информация : The same subtitle format used on BDs/HD-DVDs
Заголовок : 1
Язык : English
Default : Да
Forced : Нет
Текст #2
Идентификатор : 6
Формат : PGS
Режим смешивания : zlib
Идентификатор кодека : S_HDMV/PGS
Идентификатор кодека/Информация : The same subtitle format used on BDs/HD-DVDs
Заголовок : 2
Язык : English
Default : Нет
Forced : Нет
Текст #3
Идентификатор : 7
Формат : PGS
Режим смешивания : zlib
Идентификатор кодека : S_HDMV/PGS
Идентификатор кодека/Информация : The same subtitle format used on BDs/HD-DVDs
Язык : English
Default : Нет
Forced : Нет
Меню
00:00:00.000 : en:00:00:00.000
00:06:20.046 : en:00:06:20.046
00:19:32.588 : en:00:19:32.588
00:21:44.345 : en:00:21:44.345
00:27:28.814 : en:00:27:28.814
00:29:36.692 : en:00:29:36.692
00:37:08.643 : en:00:37:08.643
00:46:51.142 : en:00:46:51.142
00:59:11.590 : en:00:59:11.590
01:01:09.708 : en:01:01:09.708
01:04:42.796 : en:01:04:42.796
01:06:13.219 : en:01:06:13.219
01:09:44.931 : en:01:09:44.931
01:19:05.532 : en:01:19:05.532
01:26:59.548 : en:01:26:59.548
01:35:58.127 : en:01:35:58.127

Bitrate Viewer:

-Скриншоты:
-Перед полуночью на NNM-CLUB
Время раздачи: с 10:00 до 00:00 по возможности

[Цитировать]



Показать сообщения:    

Текущее время: 04-Дек 23:29

Часовой пояс: UTC + 3


Вы не можете начинать темы
Вы не можете отвечать на сообщения
Вы не можете редактировать свои сообщения
Вы не можете удалять свои сообщения
Вы не можете голосовать в опросах
Вы не можете прикреплять файлы к сообщениям
Вы не можете скачивать файлы

!ВНИМАНИЕ!
Сайт не предоставляет электронные версии произведений, а занимается лишь коллекционированием и каталогизацией ссылок, присылаемых и публикуемых на форуме нашими читателями. Если вы являетесь правообладателем какого-либо представленного материала и не желаете, чтобы ссылка на него находилась в нашем каталоге, свяжитесь с нами, и мы незамедлительно удалим ее. Файлы для обмена на трекере предоставлены пользователями сайта, и администрация не несет ответственности за их содержание. Просьба не заливать файлы, защищенные авторскими правами, а также файлы нелегального содержания!