[ Сегодня идет свободное скачивание без начисления Download ]


Статистика раздачи
Нет
 
   
 
Top  
 
 
-Возврат / Cashback (2005) BDRip
«Life's what you make it»
-- Год выпуска: 2005
Производство: Великобритания | Left Turn Films, Lip Sync Productions, Ugly Duckling Films
Жанр: драма, мелодрама, комедия-Описание фильма:
Переживая болезненное расставание с любимой, Бен впадает в бессонницу. В освободившиеся 8 часов он начинает работать в ночную смену местного супермаркета, где главной задачей обслуживающего персонала является «времяубийство». Неожиданно Бен обнаруживает в себе необычную способность останавливать время, что даёт толчок его художественному таланту.-Режиссер: Шон Эллис
Актеры: Шон Биггерстаф, Эмилия Фокс, Стюарт Гудвин, Майкл Лэмбурн, Майкл Диксон, Мишель Райан, Эрика Эллис, Джей Бауэн, Шон Эванс, Кеннет Фахи ...
Продолжительность: 01:42:03
Качество видео: BDRip 1080p
Перевод: Многоголосый закадровый
Язык субтитров: русский, английский
Вид субтитров: вшитые отключаемые

Дата мировой премьеры: 18 мая 2006
Видеокодек: MPEG-4 AVC/H.264
Битрейт видео: ~11,3 Mbps
Размер кадра: 1920x764
Audio #1: AC3 5.1, 448 Kbps, русский
Audio #2: DTS 5.1, 1509 Kbps, английский
Главы сохранены

MediaInfo:

General
Unique ID                                : 218917210096851544556666528091781000229 (0xA4B1EBC8684983FD9F6D17CCF39CEC25)
Complete name                            : :\\Возврат_Cashback (2006).BDRip.1080p.mkv
Format                                   : Matroska
Format version                           : Version 4 / Version 2
File size                                : 9.45 GiB
Duration                                 : 1h 42mn
Overall bit rate                         : 13.3 Mbps
Movie name                               : CMEGRoup
Encoded date                             : UTC 2013-11-19 15:50:52
Writing application                      : mkvmerge v6.5.0 ('Isn't she lovely') built on Oct 20 2013 12:50:05
Writing library                          : libebml v1.3.0 + libmatroska v1.4.1
Video
ID                                       : 1
Format                                   : AVC
Format/Info                              : Advanced Video Codec
Format profile                           : [url=mailto:High@L4.1]High@L4.1[/url]
Format settings, CABAC                   : Yes
Format settings, ReFrames                : 4 frames
Codec ID                                 : V_MPEG4/ISO/AVC
Duration                                 : 1h 42mn
Bit rate                                 : 11.3 Mbps
Width                                    : 1 920 pixels
Height                                   : 764 pixels
Display aspect ratio                     : 2.513
Frame rate mode                          : Constant
Frame rate                               : 23.976 fps
Color space                              : YUV
Chroma subsampling                       : 4:2:0
Bit depth                                : 8 bits
Scan type                                : Progressive
Bits/(Pixel*Frame)                       : 0.321
Stream size                              : 7.86 GiB (83%)
Writing library                          : x264 core 133 r2334 a3ac64b
Encoding settings                        : cabac=1 / ref=4 / deblock=1:-3:-3 / analyse=0x3:0x113 / me=umh / subme=11 / psy=1 / psy_rd=1.00:0.00 / mixed_ref=1 / me_range=48 / chroma_me=1 / trellis=2 / 8x8dct=1 / cqm=0 / deadzone=21,11 / fast_pskip=1 / chroma_qp_offset=-2 / threads=12 / lookahead_threads=1 / sliced_threads=0 / nr=0 / decimate=1 / interlaced=0 / bluray_compat=0 / constrained_intra=0 / bframes=5 / b_pyramid=2 / b_adapt=1 / b_bias=0 / direct=2 / weightb=1 / open_gop=0 / weightp=2 / keyint=240 / keyint_min=23 / scenecut=40 / intra_refresh=0 / rc_lookahead=40 / rc=2pass / mbtree=1 / bitrate=11300 / ratetol=1.0 / qcomp=0.60 / qpmin=10 / qpmax=51 / qpstep=4 / cplxblur=20.0 / qblur=0.5 / vbv_maxrate=62500 / vbv_bufsize=78125 / nal_hrd=none / ip_ratio=1.40 / aq=1:1.00 / zones=138499,146815,q=40
Language                                 : English
Default                                  : Yes
Forced                                   : No
Audio #1
ID                                       : 2
Format                                   : AC-3
Format/Info                              : Audio Coding 3
Mode extension                           : CM (complete main)
Format settings, Endianness              : Big
Codec ID                                 : A_AC3
Duration                                 : 1h 42mn
Bit rate mode                            : Constant
Bit rate                                 : 448 Kbps
Channel(s)                               : 6 channels
Channel positions                        : Front: L C R, Side: L R, LFE
Sampling rate                            : 48.0 KHz
Bit depth                                : 16 bits
Compression mode                         : Lossy
Stream size                              : 327 MiB (3%)
Language                                 : Russian
Default                                  : Yes
Forced                                   : No
Audio #2
ID                                       : 3
Format                                   : DTS
Format/Info                              : Digital Theater Systems
Mode                                     : 16
Format settings, Endianness              : Big
Codec ID                                 : A_DTS
Duration                                 : 1h 42mn
Bit rate mode                            : Constant
Bit rate                                 : 1 509 Kbps
Channel(s)                               : 6 channels
Channel positions                        : Front: L C R, Side: L R, LFE
Sampling rate                            : 48.0 KHz
Bit depth                                : 24 bits
Compression mode                         : Lossy
Stream size                              : 1.08 GiB (11%)
Language                                 : English
Default                                  : No
Forced                                   : No
Text #1
ID                                       : 4
Format                                   : UTF-8
Codec ID                                 : S_TEXT/UTF8
Codec ID/Info                            : UTF-8 Plain Text
Title                                    : Russian
Language                                 : Russian
Default                                  : No
Forced                                   : No
Text #2
ID                                       : 5
Format                                   : UTF-8
Codec ID                                 : S_TEXT/UTF8
Codec ID/Info                            : UTF-8 Plain Text
Title                                    : English
Language                                 : English
Default                                  : No
Forced                                   : No
Menu
00:00:00.000                             : en:Chapter 1
00:01:20.747                             : en:Chapter 2
00:04:24.639                             : en:Chapter 3
00:10:39.972                             : en:Chapter 4
00:13:39.151                             : en:Chapter 5
00:16:52.678                             : en:Chapter 6
00:21:46.305                             : en:Chapter 7
00:25:01.500                             : en:Chapter 8
00:29:24.763                             : en:Chapter 9
00:32:43.503                             : en:Chapter 10
00:34:31.235                             : en:Chapter 11
00:40:06.362                             : en:Chapter 12
00:44:31.418                             : en:Chapter 13
00:47:32.307                             : en:Chapter 14
00:55:26.823                             : en:Chapter 15
00:58:53.780                             : en:Chapter 16
01:03:36.229                             : en:Chapter 17
01:11:02.466                             : en:Chapter 18
01:13:21.355                             : en:Chapter 19
01:17:19.801                             : en:Chapter 20
01:21:34.973                             : en:Chapter 21
01:28:49.907                             : en:Chapter 22
01:30:38.683                             : en:Chapter 23
01:35:57.752                             : en:Chapter 24
01:42:02.449                             : en:Chapter 25
Скриншоты: Время раздачи: 24/7 до 3-х скачавших

[Цитировать]



Показать сообщения:    

Текущее время: 08-Дек 01:17

Часовой пояс: UTC + 3


Вы не можете начинать темы
Вы не можете отвечать на сообщения
Вы не можете редактировать свои сообщения
Вы не можете удалять свои сообщения
Вы не можете голосовать в опросах
Вы не можете прикреплять файлы к сообщениям
Вы не можете скачивать файлы

!ВНИМАНИЕ!
Сайт не предоставляет электронные версии произведений, а занимается лишь коллекционированием и каталогизацией ссылок, присылаемых и публикуемых на форуме нашими читателями. Если вы являетесь правообладателем какого-либо представленного материала и не желаете, чтобы ссылка на него находилась в нашем каталоге, свяжитесь с нами, и мы незамедлительно удалим ее. Файлы для обмена на трекере предоставлены пользователями сайта, и администрация не несет ответственности за их содержание. Просьба не заливать файлы, защищенные авторскими правами, а также файлы нелегального содержания!