[ Сегодня идет свободное скачивание без начисления Download ]


Статистика раздачи
Нет
 
   
 
Top  
 
 
-Евротур / EuroTrip (2004) BDRip [Theatrical]
«No actual Europeans were harmed in the making of this film»
-- Год выпуска: 2004
Производство: США | DreamWorks SKG, Blue Sea Productions Inc.
Жанр: комедия, приключения-Описание фильма:
Скотт Томас завел себе друга по переписке из Германии из самых практичных соображений. Он хотел получить отличную оценку по немецкому, а некто с именем Мик согласился перевести его домашние работы. Но вскоре выяснилось, что Мик — обворожительная блондинка, которая не прочь увидеть своего американского друга вживую.
После выпускных экзаменов Скотт прихватывает нескольких близких друзей и летит в Европу. Впереди его ждет увлекательное, хоть и беспокойное путешествие из Лондона в Берлин через Париж и Амстердам…-Режиссер: Джефф Шеффер, Алек Берг, Дэвид Мэндел
Актеры: Скотт Мехловиц, Джекоб Питтс, Мишель Трахтенберг, Трэвис Уэстер, Джессика Бёрс, Кристин Кройк, Кэти Мейлс, Ниел Исхаков, Мэтт Дэймон, Винни Джонс ...
Продолжительность: 01:30:05
Качество видео: BDRip 1080p
Перевод: Дублированный
Язык субтитров: русский, английский
Вид субтитров: вшитые отключаемые

Дата мировой премьеры: 20 февраля 2004
Дата российской премьеры: 26 августа 2004, «Централ Партнершип»
Дата выхода DVD релиза: 16 сентября 2004, «CP-Digital»
Видеокодек: MPEG-4 AVC/H.264
Битрейт видео: ~12400 kbps
Размер кадра: 1920x1080
Audio #1: DTS 5.1, 755 Kbps, русский
Audio #2: DTS 5.1, 1509 Kbps, английский
Главы сохранены

MediaInfo:

General
Unique ID                                : 250073329236524506632864863190453683318 (0xBC225F0DF8734E53B228DD2E416D8476)
Complete name                            : :\\Eurotrip (2004).BDRip.1080p.theatrical.mkv
Format                                   : Matroska
Format version                           : Version 4 / Version 2
File size                                : 9.23 GiB
Duration                                 : 1h 30mn
Overall bit rate                         : 14.7 Mbps
Movie name                               : CMEGRoup
Encoded date                             : UTC 2013-11-18 17:00:20
Writing application                      : mkvmerge v6.5.0 ('Isn't she lovely') built on Oct 20 2013 12:50:05
Writing library                          : libebml v1.3.0 + libmatroska v1.4.1
Video
ID                                       : 1
Format                                   : AVC
Format/Info                              : Advanced Video Codec
Format profile                           : [url=mailto:High@L4.1]High@L4.1[/url]
Format settings, CABAC                   : Yes
Format settings, ReFrames                : 4 frames
Codec ID                                 : V_MPEG4/ISO/AVC
Duration                                 : 1h 30mn
Bit rate                                 : 12.4 Mbps
Width                                    : 1 920 pixels
Height                                   : 1 080 pixels
Display aspect ratio                     : 16:9
Frame rate mode                          : Constant
Frame rate                               : 23.976 fps
Color space                              : YUV
Chroma subsampling                       : 4:2:0
Bit depth                                : 8 bits
Scan type                                : Progressive
Bits/(Pixel*Frame)                       : 0.249
Stream size                              : 7.62 GiB (83%)
Writing library                          : x264 core 133 r2334 a3ac64b
Encoding settings                        : cabac=1 / ref=4 / deblock=1:-3:-3 / analyse=0x3:0x113 / me=umh / subme=11 / psy=1 / psy_rd=1.00:0.00 / mixed_ref=1 / me_range=32 / chroma_me=1 / trellis=2 / 8x8dct=1 / cqm=0 / deadzone=21,11 / fast_pskip=1 / chroma_qp_offset=-2 / threads=12 / lookahead_threads=1 / sliced_threads=0 / nr=0 / decimate=1 / interlaced=0 / bluray_compat=0 / constrained_intra=0 / bframes=5 / b_pyramid=2 / b_adapt=1 / b_bias=0 / direct=2 / weightb=1 / open_gop=0 / weightp=2 / keyint=240 / keyint_min=23 / scenecut=40 / intra_refresh=0 / rc_lookahead=40 / rc=2pass / mbtree=1 / bitrate=12400 / ratetol=1.0 / qcomp=0.60 / qpmin=10 / qpmax=51 / qpstep=4 / cplxblur=20.0 / qblur=0.5 / vbv_maxrate=62500 / vbv_bufsize=78125 / nal_hrd=none / ip_ratio=1.40 / aq=1:1.00 / zones=122899,129609,q=40
Language                                 : English
Default                                  : Yes
Forced                                   : No
Audio #1
ID                                       : 2
Format                                   : DTS
Format/Info                              : Digital Theater Systems
Mode                                     : 16
Format settings, Endianness              : Big
Codec ID                                 : A_DTS
Duration                                 : 1h 30mn
Bit rate mode                            : Constant
Bit rate                                 : 755 Kbps
Channel(s)                               : 6 channels
Channel positions                        : Front: L C R, Side: L R, LFE
Sampling rate                            : 48.0 KHz
Bit depth                                : 24 bits
Compression mode                         : Lossy
Stream size                              : 486 MiB (5%)
Language                                 : Russian
Default                                  : Yes
Forced                                   : No
Audio #2
ID                                       : 3
Format                                   : DTS
Format/Info                              : Digital Theater Systems
Mode                                     : 16
Format settings, Endianness              : Big
Codec ID                                 : A_DTS
Duration                                 : 1h 30mn
Bit rate mode                            : Constant
Bit rate                                 : 1 509 Kbps
Channel(s)                               : 6 channels
Channel positions                        : Front: L C R, Side: L R, LFE
Sampling rate                            : 48.0 KHz
Bit depth                                : 24 bits
Compression mode                         : Lossy
Stream size                              : 972 MiB (10%)
Language                                 : English
Default                                  : No
Forced                                   : No
Text #1
ID                                       : 4
Format                                   : UTF-8
Codec ID                                 : S_TEXT/UTF8
Codec ID/Info                            : UTF-8 Plain Text
Language                                 : Russian
Default                                  : No
Forced                                   : No
Text #2
ID                                       : 5
Format                                   : UTF-8
Codec ID                                 : S_TEXT/UTF8
Codec ID/Info                            : UTF-8 Plain Text
Language                                 : English
Default                                  : No
Forced                                   : No
Menu
00:00:00.000                             : :Chapter 01
00:03:00.388                             : :Chapter 02
00:06:31.766                             : :Chapter 03
00:08:28.883                             : :Chapter 04
00:17:49.526                             : :Chapter 05
00:20:03.285                             : :Chapter 06
00:21:13.438                             : :Chapter 07
00:27:11.546                             : :Chapter 08
00:34:57.845                             : :Chapter 09
00:39:05.259                             : :Chapter 10
00:42:43.060                             : :Chapter 11
00:45:24.847                             : :Chapter 12
00:54:19.005                             : :Chapter 13
00:59:43.663                             : :Chapter 14
01:05:05.526                             : :Chapter 15
01:09:15.818                             : :Chapter 16
01:14:42.102                             : :Chapter 17
01:18:02.260                             : :Chapter 18
01:22:44.417                             : :Chapter 19
01:25:07.352                             : :Chapter 20
Скриншоты: Время раздачи: 24/7 до 3-х скачавших

[Цитировать]



Показать сообщения:    

Текущее время: 09-Дек 18:31

Часовой пояс: UTC + 3


Вы не можете начинать темы
Вы не можете отвечать на сообщения
Вы не можете редактировать свои сообщения
Вы не можете удалять свои сообщения
Вы не можете голосовать в опросах
Вы не можете прикреплять файлы к сообщениям
Вы не можете скачивать файлы

!ВНИМАНИЕ!
Сайт не предоставляет электронные версии произведений, а занимается лишь коллекционированием и каталогизацией ссылок, присылаемых и публикуемых на форуме нашими читателями. Если вы являетесь правообладателем какого-либо представленного материала и не желаете, чтобы ссылка на него находилась в нашем каталоге, свяжитесь с нами, и мы незамедлительно удалим ее. Файлы для обмена на трекере предоставлены пользователями сайта, и администрация не несет ответственности за их содержание. Просьба не заливать файлы, защищенные авторскими правами, а также файлы нелегального содержания!