[ Сегодня идет свободное скачивание без начисления Download ]


Статистика раздачи
Нет
 
   
 
 
 
-Пережить Рождество / Surviving Christmas (2004) BDRip [720p]- Год выпуска: 2004
Жанр: Комедия, Мелодрама
Страна: США
Описание фильма:
Опостылевшая рутинная жизнь богача Дрю Лэтама приводит его на Рождество в пригородный дом своего детства. И даже тот факт, что дом заселён теперь другими людьми, не может испортить Дрю настроение. За солидное вознаграждение он предлагает семейке Валко на время стать его роднёй, и сам мечтает отметить праздник в их кругу. Вот только деньги кружат голову далеко не всем его новым родственникам, да и сами Валко, кажется, представляют собой редкую семейку психопатов…
Режиссер: Майк Митчелл
Актеры: Бен Аффлек, Джеймс Гандольфини, Кристина Эпплгейт, Кэтрин О’Хара, Джош Цуккерман, Билл Мэйси, Дженнифер Моррисон, Удо Кир, Дэвид Селби, Стефани Фэраси
Продолжительность: 01:30:54
Качество видео: BDRip 720p
Перевод: Дублированный
Язык субтитров: русские
Вид субтитров: Вшитые

Видеокодек: MPEG-4 AVC/H.264
Битрейт видео: ~5384 Kbps
Размер кадра: 1280x720
Аудио 1: Русский / Дубляж / AC3 / 6.0 / 48.0 KHz / 384 kbps
Аудио 2: Английский / Оригинал / DTS / 6.0 / 48.0 KHz / 1 509 Kbps

MI

Format : Matroska
Format version : Version 4 / Version 2
File size : 4.61 GiB
Duration : 1h 30mn
Overall bit rate : 7 274 Kbps
Movie name : Surviving Christmas (2004) - Release for HDCLUB
Encoded date : UTC 2013-11-05 19:46:05
Writing application : mkvmerge v6.3.0 ('You can't stop me!') built on Jul 19 2013 16:27:38
Writing library : libebml v1.3.0 + libmatroska v1.4.1
Video
ID : 1
Format : AVC
Format/Info : Advanced Video Codec
Format profile : High@L4.1
Format settings, CABAC : Yes
Format settings, ReFrames : 5 frames
Codec ID : V_MPEG4/ISO/AVC
Duration : 1h 30mn
Bit rate : 5 384 Kbps
Width : 1 280 pixels
Height : 720 pixels
Display aspect ratio : 16:9
Frame rate mode : Constant
Frame rate : 23.976 fps
Color space : YUV
Chroma subsampling : 4:2:0
Bit depth : 8 bits
Scan type : Progressive
Bits/(Pixel*Frame) : 0.244
Stream size : 3.32 GiB (72%)
Writing library : x264 core 140 r2377 1ca7bb9
Encoding settings : cabac=1 / ref=5 / deblock=1:0:0 / analyse=0x3:0x133 / me=umh / subme=7 / psy=1 / psy_rd=1.00:0.00 / mixed_ref=1 / me_range=16 / chroma_me=1 / trellis=1 / 8x8dct=1 / cqm=0 / deadzone=21,11 / fast_pskip=0 / chroma_qp_offset=-2 / threads=36 / lookahead_threads=5 / sliced_threads=0 / nr=0 / decimate=1 / interlaced=0 / bluray_compat=0 / constrained_intra=0 / bframes=3 / b_pyramid=2 / b_adapt=1 / b_bias=0 / direct=1 / weightb=1 / open_gop=0 / weightp=2 / keyint=250 / keyint_min=23 / scenecut=40 / intra_refresh=0 / rc_lookahead=40 / rc=2pass / mbtree=1 / bitrate=5384 / ratetol=1.0 / qcomp=0.60 / qpmin=0 / qpmax=69 / qpstep=4 / cplxblur=20.0 / qblur=0.5 / ip_ratio=1.40 / aq=1:1.00
Language : Russian
Default : Yes
Forced : No
Audio #1
ID : 2
Format : AC-3
Format/Info : Audio Coding 3
Mode extension : CM (complete main)
Format settings, Endianness : Big
Codec ID : A_AC3
Duration : 1h 30mn
Bit rate mode : Constant
Bit rate : 384 Kbps
Channel(s) : 6 channels
Channel positions : Front: L C R, Side: L R, LFE
Sampling rate : 48.0 KHz
Bit depth : 16 bits
Compression mode : Lossy
Delay relative to video : 2s 0ms
Stream size : 249 MiB (5%)
Title : AC3 5.1 @ 384 kbps - DUB
Language : Russian
Default : Yes
Forced : No
Audio #2
ID : 3
Format : DTS
Format/Info : Digital Theater Systems
Mode : 16
Format settings, Endianness : Big
Codec ID : A_DTS
Duration : 1h 30mn
Bit rate mode : Constant
Bit rate : 1 509 Kbps
Channel(s) : 6 channels
Channel positions : Front: L C R, Side: L R, LFE
Sampling rate : 48.0 KHz
Bit depth : 24 bits
Compression mode : Lossy
Stream size : 979 MiB (21%)
Title : DTS Original
Language : English
Default : No
Forced : No
Text
ID : 4
Format : UTF-8
Codec ID : S_TEXT/UTF8
Codec ID/Info : UTF-8 Plain Text
Title : Dub
Language : Russian
Default : No
Forced : No
Menu
00:00:00.000 : en:00:00:00.000
00:02:39.576 : en:00:02:39.576
00:08:43.356 : en:00:08:43.356
00:13:43.114 : en:00:13:43.114
00:17:23.292 : en:00:17:23.292
00:19:53.818 : en:00:19:53.818
00:23:01.213 : en:00:23:01.213
00:27:38.156 : en:00:27:38.156
00:29:22.511 : en:00:29:22.511
00:34:19.808 : en:00:34:19.808
00:36:40.907 : en:00:36:40.907
00:43:41.619 : en:00:43:41.619
00:47:03.654 : en:00:47:03.654
00:50:31.445 : en:00:50:31.445
00:52:46.580 : en:00:52:46.580
00:56:19.835 : en:00:56:19.835
01:00:04.726 : en:01:00:04.726
01:05:16.871 : en:01:05:16.871
01:08:14.841 : en:01:08:14.841
01:11:51.265 : en:01:11:51.265
01:15:45.124 : en:01:15:45.124
01:18:35.252 : en:01:18:35.252
01:21:40.062 : en:01:21:40.062
01:25:06.310 : en:01:25:06.310
- -Время раздачи: c 13:00 до 03:00. До первых 5 скачавших.

[Цитировать]



Показать сообщения:    

Текущее время: 07-Дек 23:21

Часовой пояс: UTC + 3


Вы не можете начинать темы
Вы не можете отвечать на сообщения
Вы не можете редактировать свои сообщения
Вы не можете удалять свои сообщения
Вы не можете голосовать в опросах
Вы не можете прикреплять файлы к сообщениям
Вы не можете скачивать файлы

!ВНИМАНИЕ!
Сайт не предоставляет электронные версии произведений, а занимается лишь коллекционированием и каталогизацией ссылок, присылаемых и публикуемых на форуме нашими читателями. Если вы являетесь правообладателем какого-либо представленного материала и не желаете, чтобы ссылка на него находилась в нашем каталоге, свяжитесь с нами, и мы незамедлительно удалим ее. Файлы для обмена на трекере предоставлены пользователями сайта, и администрация не несет ответственности за их содержание. Просьба не заливать файлы, защищенные авторскими правами, а также файлы нелегального содержания!