[ Сегодня идет свободное скачивание без начисления Download ]


Статистика раздачи
Нет
 
   
 
Top  
 
 
-127 Часов / 127 Hours (2010) BDRip [720p]- -Год выпуска: 2010
Производство: США / Fox Searchlight Pictures, Everest Entertainment
Жанр: триллер, биография, драма, приключения
Перевод: Профессиональный (полное дублирование), Профессиональный (многоголосый), Профессиональный (одноголосый)
Субтитры: Вшитые отключаемые
Язык субтитров: Русский (Forced, R5, SDH, Full); Английский (Full)-Дата мировой премьеры: 4 сентября 2010
Дата российской премьеры: 17 февраля 2011, «Двадцатый Век Фокс СНГ»
Дата выхода DVD: 14 апреля 2011, «Двадцатый Век Фокс СНГ»
Дата выхода Blu-Ray: 4 августа 2011, «Двадцатый Век Фокс СНГ»-Режиссер: Дэнни Бойл
Актеры: Джеймс Франко, Кейт Мара, Эмбер Тэмблин, Шон Ботт, Колман Стингер, Трит Уильямс, Джон Лоуренс, Кейт Бёртон, Бэйли Мишель Джонсон, Ребекка С. Олсон-Описание фильма: Неудержимый скалолаз и любитель спрятанных в каньонах пещер в очередной раз в одиночестве едет в горы и оказывается в смертельной ловушке. 127 часов без еды, без питья и практически без надежды выжить. Тут-то и проявляется сила характера…-
-Продолжительность: 01:33:41
Качество видео: BDRip 720p-Видеокодек: MPEG-4 AVC/H.264
Битрейт видео: ~5997 Kbps
Размер кадра: 1280х694
Аудио#1: [Русский]: DTS 5.1; ~755.00 kbps; 48.0 KHz; 24-bits |R5|
Аудио#2: [Русский]: DTS 5.1; ~1509.00 kbps; 48.0 KHz; 24-bits |Кубик в Кубе|
Аудио#3: [Русский]: DTS 5.1; ~1510.00 kbps; 48.0 KHz; 24-bits |OzzTV|
Аудио#4: [Русский]: DTS 5.1; ~1509.00 kbps; 48.0 KHz; 24-bits |Ю.Сербин|
Аудио#5: [Английский]: DTS 5.1; ~1509.00 kbps; 48.0 KHz; 24-bits |Оригинал|
Аудио#6: [Английский]: AAC-LC 2.0; 96.00 kbps; 48.0 KHz; 16-bit |Комментарии|
Дополнительно: Сохранены оригинальные чаптеры как на Blu-ray.

MediaInfo:

General
Unique ID                                : 243774115247110141430180694622584283690 (0xB7652FD39294EE1F86F97211D60DA22A)
Complete name                            : D:\127.Hours.2010.BDRip.720p.mkv
Format                                   : Matroska
Format version                           : Version 4 / Version 2
File size                                : 8.41 GiB
Duration                                 : 1h 33mn
Overall bit rate                         : 12.8 Mbps
Movie name                               : [R/W/@]
Encoded date                             : UTC 2013-10-29 08:47:00
Writing application                      : mkvmerge v6.5.0 ('Isn't she lovely') built on Oct 20 2013 12:50:05
Writing library                          : libebml v1.3.0 + libmatroska v1.4.1
Attachment                               : Yes
Video
ID                                       : 1
Format                                   : AVC
Format/Info                              : Advanced Video Codec
Format profile                           : [url=mailto:High@L4.1]High@L4.1[/url]
Format settings, CABAC                   : Yes
Format settings, ReFrames                : 8 frames
Codec ID                                 : V_MPEG4/ISO/AVC
Duration                                 : 1h 33mn
Nominal bit rate                         : 5 997 Kbps
Width                                    : 1 280 pixels
Height                                   : 694 pixels
Display aspect ratio                     : 1.85:1
Frame rate mode                          : Constant
Frame rate                               : 23.976 fps
Color space                              : YUV
Chroma subsampling                       : 4:2:0
Bit depth                                : 8 bits
Scan type                                : Progressive
Bits/(Pixel*Frame)                       : 0.282
Title                                    : 127 Hours [R/W/@]
Writing library                          : x264 core 114 r1913 5fd3dce
Encoding settings                        : cabac=1 / ref=8 / deblock=1:-3:-3 / analyse=0x3:0x113 / me=tesa / subme=10 / psy=1 / psy_rd=1.00:0.00 / mixed_ref=1 / me_range=16 / chroma_me=1 / trellis=2 / 8x8dct=1 / cqm=0 / deadzone=21,11 / fast_pskip=0 / chroma_qp_offset=-2 / threads=6 / sliced_threads=0 / nr=0 / decimate=0 / interlaced=0 / constrained_intra=0 / bframes=8 / b_pyramid=2 / b_adapt=2 / b_bias=0 / direct=3 / weightb=1 / open_gop=0 / weightp=2 / keyint=250 / keyint_min=23 / scenecut=40 / intra_refresh=0 / rc=2pass / mbtree=0 / bitrate=5997 / ratetol=1.0 / qcomp=0.60 / qpmin=0 / qpmax=69 / qpstep=4 / cplxblur=20.0 / qblur=0.5 / ip_ratio=1.40 / pb_ratio=1.30 / aq=1:0.80
Language                                 : English
Default                                  : No
Forced                                   : No
Audio #1
ID                                       : 2
Format                                   : DTS
Format/Info                              : Digital Theater Systems
Mode                                     : 16
Format settings, Endianness              : Big
Codec ID                                 : A_DTS
Duration                                 : 1h 33mn
Bit rate mode                            : Constant
Bit rate                                 : 755 Kbps
Channel count                            : 6 channels
Channel positions                        : Front: L C R, Side: L R, LFE
Sampling rate                            : 48.0 KHz
Bit depth                                : 24 bits
Compression mode                         : Lossy
Stream size                              : 506 MiB (6%)
Title                                    : Дубляж, R5
Language                                 : Russian
Default                                  : Yes
Forced                                   : No
Audio #2
ID                                       : 3
Format                                   : DTS
Format/Info                              : Digital Theater Systems
Mode                                     : 16
Format settings, Endianness              : Big
Codec ID                                 : A_DTS
Duration                                 : 1h 33mn
Bit rate mode                            : Constant
Bit rate                                 : 1 509 Kbps
Channel count                            : 6 channels
Channel positions                        : Front: L C R, Side: L R, LFE
Sampling rate                            : 48.0 KHz
Bit depth                                : 24 bits
Compression mode                         : Lossy
Stream size                              : 1 012 MiB (12%)
Title                                    : Кубик в Кубе
Language                                 : Russian
Default                                  : No
Forced                                   : No
Audio #3
ID                                       : 4
Format                                   : DTS
Format/Info                              : Digital Theater Systems
Mode                                     : 16
Format settings, Endianness              : Big
Codec ID                                 : A_DTS
Duration                                 : 1h 33mn
Bit rate mode                            : Constant
Bit rate                                 : 1 510 Kbps
Channel count                            : 6 channels
Channel positions                        : Front: L C R, Side: L R, LFE
Sampling rate                            : 48.0 KHz
Bit depth                                : 24 bits
Compression mode                         : Lossy
Stream size                              : 1 013 MiB (12%)
Title                                    : OzzTV
Language                                 : Russian
Default                                  : No
Forced                                   : No
Audio #4
ID                                       : 5
Format                                   : DTS
Format/Info                              : Digital Theater Systems
Mode                                     : 16
Format settings, Endianness              : Big
Codec ID                                 : A_DTS
Duration                                 : 1h 33mn
Bit rate mode                            : Constant
Bit rate                                 : 1 509 Kbps
Channel count                            : 6 channels
Channel positions                        : Front: L C R, Side: L R, LFE
Sampling rate                            : 48.0 KHz
Bit depth                                : 24 bits
Compression mode                         : Lossy
Stream size                              : 1 012 MiB (12%)
Title                                    : Ю.Сербин
Language                                 : Russian
Default                                  : No
Forced                                   : No
Audio #5
ID                                       : 6
Format                                   : DTS
Format/Info                              : Digital Theater Systems
Mode                                     : 16
Format settings, Endianness              : Big
Codec ID                                 : A_DTS
Duration                                 : 1h 33mn
Bit rate mode                            : Constant
Bit rate                                 : 1 509 Kbps
Channel count                            : 6 channels
Channel positions                        : Front: L C R, Side: L R, LFE
Sampling rate                            : 48.0 KHz
Bit depth                                : 24 bits
Compression mode                         : Lossy
Stream size                              : 1 012 MiB (12%)
Title                                    : Оригинал
Language                                 : English
Default                                  : No
Forced                                   : No
Audio #6
ID                                       : 7
Format                                   : AAC
Format/Info                              : Advanced Audio Codec
Format profile                           : HE-AAC / LC
Codec ID                                 : A_AAC
Duration                                 : 1h 33mn
Channel count                            : 2 channels
Channel positions                        : Front: L R
Sampling rate                            : 48.0 KHz / 24.0 KHz
Compression mode                         : Lossy
Title                                    : Комментарии
Language                                 : English
Default                                  : No
Forced                                   : No
Text #1
ID                                       : 8
Format                                   : UTF-8
Codec ID                                 : S_TEXT/UTF8
Codec ID/Info                            : UTF-8 Plain Text
Title                                    : Forced
Language                                 : Russian
Default                                  : No
Forced                                   : No
Text #2
ID                                       : 9
Format                                   : UTF-8
Codec ID                                 : S_TEXT/UTF8
Codec ID/Info                            : UTF-8 Plain Text
Title                                    : R5
Language                                 : Russian
Default                                  : No
Forced                                   : No
Text #3
ID                                       : 10
Format                                   : UTF-8
Codec ID                                 : S_TEXT/UTF8
Codec ID/Info                            : UTF-8 Plain Text
Title                                    : SDH
Language                                 : Russian
Default                                  : No
Forced                                   : No
Text #4
ID                                       : 11
Format                                   : UTF-8
Codec ID                                 : S_TEXT/UTF8
Codec ID/Info                            : UTF-8 Plain Text
Title                                    : Full
Language                                 : Russian
Default                                  : No
Forced                                   : No
Text #5
ID                                       : 12
Format                                   : UTF-8
Codec ID                                 : S_TEXT/UTF8
Codec ID/Info                            : UTF-8 Plain Text
Title                                    : Full
Language                                 : English
Default                                  : No
Forced                                   : No
Menu
00:00:00.000                             : en:00:00:00.000
00:05:08.141                             : en:00:05:08.141
00:07:55.975                             : en:00:07:55.975
00:10:46.729                             : en:00:10:46.729
00:14:42.924                             : en:00:14:42.924
00:20:43.534                             : en:00:20:43.534
00:25:02.209                             : en:00:25:02.209
00:29:34.898                             : en:00:29:34.898
00:32:16.434                             : en:00:32:16.434
00:35:46.728                             : en:00:35:46.728
00:40:12.368                             : en:00:40:12.368
00:45:48.704                             : en:00:45:48.704
00:48:48.968                             : en:00:48:48.968
00:52:01.744                             : en:00:52:01.744
00:56:05.988                             : en:00:56:05.988
01:00:57.320                             : en:01:00:57.320
01:03:19.629                             : en:01:03:19.629
01:06:43.208                             : en:01:06:43.208
01:10:24.262                             : en:01:10:24.262
01:12:31.222                             : en:01:12:31.222
01:15:33.237                             : en:01:15:33.237
01:19:51.704                             : en:01:19:51.704
01:23:28.545                             : en:01:23:28.545
01:28:07.908                             : en:01:28:07.908
Скриншоты:- -
Время раздачи: 24/7 до 3х скачавших, дальше по мере возможности...

[Цитировать]



Показать сообщения:    

Текущее время: 10-Дек 11:55

Часовой пояс: UTC + 3


Вы не можете начинать темы
Вы не можете отвечать на сообщения
Вы не можете редактировать свои сообщения
Вы не можете удалять свои сообщения
Вы не можете голосовать в опросах
Вы не можете прикреплять файлы к сообщениям
Вы не можете скачивать файлы

!ВНИМАНИЕ!
Сайт не предоставляет электронные версии произведений, а занимается лишь коллекционированием и каталогизацией ссылок, присылаемых и публикуемых на форуме нашими читателями. Если вы являетесь правообладателем какого-либо представленного материала и не желаете, чтобы ссылка на него находилась в нашем каталоге, свяжитесь с нами, и мы незамедлительно удалим ее. Файлы для обмена на трекере предоставлены пользователями сайта, и администрация не несет ответственности за их содержание. Просьба не заливать файлы, защищенные авторскими правами, а также файлы нелегального содержания!