[ Сегодня идет свободное скачивание без начисления Download ]


Статистика раздачи
Нет
 
   
 
 
 
-Легенды Нетайи / The Legends of Nethiah (2012) BDRip- -Год выпуска: 2012
Производство: США
Жанр: фантастика, фэнтези, боевик, драма, приключения
Перевод: Профессиональное (многоголосое) [Нтв+]
Язык субтитров: Английский
Вид субтитров: Вшитые, отключаемые-Дата мировой премьеры: 27 мая 2012-Режиссер: Расс Эмануэл, Tomax Aponte
Продюсер: Ховард Нэш, Jeremiah Sayys, Дженнифер Бернет
Актеры: Роберт Пикардо, Джаред Янг, Джеремайя Сейис, Лора Ковелли, Джон Херд, Жилон Гай, Джон Хёрд, Тереза Расселл, Джули Майклс, Брайс Клайд Дженкинс, Эйприл Литтлджон-Описание фильма:10-летнему ребенку нелегко справиться с разводом родителей да еще решить непосильную задачу, с кем жить. Мальчик переживает, а выход горю находит в драках со сверстниками. Понимая, что толку от подобного занятия не будет, дед рассказывает внуку поучительную историю. Незаметно для самого себя мальчик взрослеет и осмысливает происходящее... [hr
-Продолжительность: 01:32:15
Качество видео: BDRip [720p]
Дополнительно: Сохранены оригинальные чаптеры как на Blu-ray-Видеокодек: mpeg-4 avc/h.264
Битрейт видео: ~6971 Кбит/с
Размер кадра: 1280х720
Аудио:
#1: AC-3, 2.0, 192 Кбит/сек, 48,0 КГц (Русский)
#2: DTS, 5.1, 1509 Кбит/сек, 48,0 КГц (Английский)-

MediaInfo

Общее
Уникальный идентификатор : 175439670812520240155507217303127878802 (0x83FC7398762205D28ADE10C2A06A6C92)
Полное имя : D:\The.Legends.of.Nethiah.2012.BDRip.720p.mkv
Формат : Matroska
Версия формата : Version 4 / Version 2
Размер файла : 5,59 Гбайт
Продолжительность : 1 ч. 32 м.
Общий поток : 8672 Кбит/сек
Название фильма : Release Group [SPAM]
Дата кодирования : UTC 2013-11-19 15:07:20
Программа кодирования : mkvmerge v6.5.0 ('Isn't she lovely') built on Oct 20 2013 12:50:05
Библиотека кодирования : libebml v1.3.0 + libmatroska v1.4.1
Видео
Идентификатор : 1
Формат : AVC
Формат/Информация : Advanced Video Codec
Профиль формата : [email protected]
Параметр CABAC формата : Да
Параметр ReFrames формата : 5 кадров
Идентификатор кодека : V_MPEG4/ISO/AVC
Продолжительность : 1 ч. 32 м.
Битрейт : 6971 Кбит/сек
Ширина : 1280 пикселей
Высота : 720 пикселей
Соотношение сторон : 16:9
Режим частоты кадров : Постоянный
Частота кадров : 23,976 кадра/сек
Цветовое пространство : YUV
Субдискретизация насыщенности : 4:2:0
Битовая глубина : 8 бит
Тип развёртки : Прогрессивная
Бит/(Пиксели*Кадры) : 0.315
Размер потока : 4,38 Гбайт (78%)
Заголовок : Release Group [SPAM]
Библиотека кодирования : x264 core 140 r2377 1ca7bb9
Настройки программы : cabac=1 / ref=5 / deblock=1:0:0 / analyse=0x3:0x113 / me=umh / subme=7 / psy=1 / psy_rd=1.00:0.00 / mixed_ref=1 / me_range=16 / chroma_me=1 / trellis=1 / 8x8dct=1 / cqm=0 / deadzone=21,11 / fast_pskip=0 / chroma_qp_offset=-2 / threads=12 / lookahead_threads=2 / sliced_threads=0 / nr=0 / decimate=1 / interlaced=0 / bluray_compat=0 / constrained_intra=0 / bframes=3 / b_pyramid=2 / b_adapt=2 / b_bias=0 / direct=3 / weightb=1 / open_gop=0 / weightp=2 / keyint=250 / keyint_min=23 / scenecut=40 / intra_refresh=0 / rc_lookahead=50 / rc=2pass / mbtree=1 / bitrate=6971 / ratetol=1.0 / qcomp=0.60 / qpmin=0 / qpmax=69 / qpstep=4 / cplxblur=20.0 / qblur=0.5 / ip_ratio=1.40 / aq=1:1.00
Default : Да
Forced : Нет
Аудио #1
Идентификатор : 2
Формат : AC-3
Формат/Информация : Audio Coding 3
Расширение режима : CM (complete main)
Параметр Endianness формата : Big
Идентификатор кодека : A_AC3
Продолжительность : 1 ч. 32 м.
Вид битрейта : Постоянный
Битрейт : 192 Кбит/сек
Каналы : 2 канала
Расположение каналов : Front: L R
Частота : 48,0 КГц
Битовая глубина : 16 бит
Метод сжатия : С потерями
Размер потока : 127 Мбайт (2%)
Заголовок : Нтв+
Язык : Russian
Default : Да
Forced : Да
Аудио #2
Идентификатор : 3
Формат : DTS
Формат/Информация : Digital Theater Systems
Режим : 16
Параметр Endianness формата : Big
Идентификатор кодека : A_DTS
Продолжительность : 1 ч. 32 м.
Вид битрейта : Постоянный
Битрейт : 1509 Кбит/сек
Каналы : 6 каналов
Расположение каналов : Front: L C R, Side: L R, LFE
Частота : 48,0 КГц
Битовая глубина : 24 бит
Метод сжатия : С потерями
Размер потока : 996 Мбайт (17%)
Язык : English
Default : Нет
Forced : Нет
Текст
Идентификатор : 4
Формат : UTF-8
Идентификатор кодека : S_TEXT/UTF8
Идентификатор кодека/Информация : UTF-8 Plain Text
Язык : English
Default : Нет
Forced : Нет
Меню
00:00:00.000 : en:00:00:00.000
00:09:59.974 : en:00:09:59.974
00:19:59.990 : en:00:19:59.990
00:29:59.965 : en:00:29:59.965
00:39:59.981 : en:00:39:59.981
00:49:59.997 : en:00:49:59.997
00:59:59.971 : en:00:59:59.971
01:09:59.987 : en:01:09:59.987
01:19:59.962 : en:01:19:59.962
-Скриншоты:

-Время раздачи: 24/7

[Цитировать]



Показать сообщения:    

Текущее время: 05-Дек 17:38

Часовой пояс: UTC + 3


Вы не можете начинать темы
Вы не можете отвечать на сообщения
Вы не можете редактировать свои сообщения
Вы не можете удалять свои сообщения
Вы не можете голосовать в опросах
Вы не можете прикреплять файлы к сообщениям
Вы не можете скачивать файлы

!ВНИМАНИЕ!
Сайт не предоставляет электронные версии произведений, а занимается лишь коллекционированием и каталогизацией ссылок, присылаемых и публикуемых на форуме нашими читателями. Если вы являетесь правообладателем какого-либо представленного материала и не желаете, чтобы ссылка на него находилась в нашем каталоге, свяжитесь с нами, и мы незамедлительно удалим ее. Файлы для обмена на трекере предоставлены пользователями сайта, и администрация не несет ответственности за их содержание. Просьба не заливать файлы, защищенные авторскими правами, а также файлы нелегального содержания!