[ Сегодня идет свободное скачивание без начисления Download ]


Статистика раздачи
Нет
 
   
 
Top  
 
 
-Звездный ворс (2012) DVDRip«Космическая одиссея XXIII века»- Год выпуска: 2012
Производство: Россия
Жанр: Фантастика, Комедия
Перевод: Не требуется (Русский)
Субтитры: Отсутствуют
Описание фильма:
Давным-давно в одной галактике на планете Земля жил профессор. Он работал в научном городке Иштыме, затерявшемся среди просторов сибирской тайги. Мысль о конструкции Вселенной не давала покоя профессору и была предметом его научных изысканий. И вот однажды, в 2221 году, посетило его озарение, и сделал он открытие, которое переворачивало с ног на голову все хрестоматийные представления о строении нашей Вселенной. Но недоброжелательно встретили это открытие завистливые коллеги-ученые из мирового сообщества. Однако нашлись и люди, поверившие светлой научной мысли профессора, мало того, дали ему денег и помогли построить первый в истории мироздания межпланетный корабль нового типа для путешествий по коридорам Вселенной, чтобы смог профессор доказать верность своей теории! И вот собрался в далеком Иштыме героический экипаж корабля — конструктор-пилот, сам профессор, штурман, продюсер экспедиции с ассистентом, повар, врач и начальник службы безопасности, чтобы отправиться в полный загадок путь через хитросплетения звездного ворса, в поисках ответов на разные вопросы, и где одни обрящут Бога, а другим воздастся по заслугам…
Режиссер: Андрей Кагадеев, Николай Копейкин
Актеры: Сергей Шнуров, Александр Лаэртский, Сергей Михалок, Николай Копейкин, Андрей Кагадеев, Сергей Кагадеев, Светлана Гумановская, Татьяна Колганова, Кирилл Миллер, Иван Турист
Продолжительность: 01:56:00
Качество видео: DVDRip

Дата российской премьеры: 28 июня 2012
Видеокодек: MPEG-4 AVC/H.264
Битрейт видео: ~2238 Kbit/s
Размер кадра: 720x576@1024x576
Аудиокодек: AC3 5.1
Битрейт аудио: 448 Kbit/s

MediaInfo

Общее
Уникальный идентификатор : 239394765912870151640405346487083842800 (0xB419C13BE42499FA918E30352DF5BCF0)
Полное имя : D:\Торренты\Звездный ворс.2012.DVDRip.AVC.mkv
Формат : Matroska
Размер файла : 2,18 Гбайт
Продолжительность : 1 ч. 56 м.
Общий поток : 2687 Кбит/сек
Дата кодирования : UTC 2013-11-19 15:28:12
Программа кодирования : mkvmerge v6.1.0 ('Old Devil') built on Mar 4 2013 09:10:42
Библиотека кодирования : libebml v1.3.0 + libmatroska v1.4.0
Видео
Идентификатор : 1
Формат : AVC
Формат/Информация : Advanced Video Codec
Профиль формата : High@L4.1
Параметр CABAC формата : Да
Параметр ReFrames формата : 8 кадров
Идентификатор кодека : V_MPEG4/ISO/AVC
Продолжительность : 1 ч. 56 м.
Битрейт : 2238 Кбит/сек
Ширина : 720 пикс.
Высота : 576 пикс.
Соотношение сторон : 16:9
Частота кадров : 25,000 кадр/сек
Стандарт вещания : PAL
Цветовое пространство : YUV
Подвыборка цветности : 4:2:0
Битовая глубина : 8 бит
Тип развёртки : Прогрессивная
Бит/(Пиксели*Кадры) : 0.216
Размер потока : 1,77 Гбайт (81%)
Библиотека кодирования : x264 core 130 r2273 b3065e6
Настройки программы : cabac=1 / ref=8 / deblock=1:-3:-3 / analyse=0x3:0x133 / me=umh / subme=10 / psy=1 / psy_rd=1.00:0.20 / mixed_ref=1 / me_range=32 / chroma_me=1 / trellis=2 / 8x8dct=1 / cqm=0 / deadzone=21,11 / fast_pskip=0 / chroma_qp_offset=-3 / threads=12 / lookahead_threads=2 / sliced_threads=0 / nr=0 / decimate=0 / interlaced=0 / bluray_compat=0 / constrained_intra=0 / bframes=8 / b_pyramid=2 / b_adapt=2 / b_bias=0 / direct=3 / weightb=1 / open_gop=0 / weightp=2 / keyint=240 / keyint_min=24 / scenecut=40 / intra_refresh=0 / rc=2pass / mbtree=0 / bitrate=2238 / ratetol=1.0 / qcomp=0.60 / qpmin=0 / qpmax=69 / qpstep=4 / cplxblur=20.0 / qblur=0.5 / ip_ratio=1.40 / pb_ratio=1.30 / aq=1:1.00
Аудио
Идентификатор : 2
Формат : AC-3
Формат/Информация : Audio Coding 3
Расширение режима : CM (complete main)
Идентификатор кодека : A_AC3
Продолжительность : 1 ч. 56 м.
Вид битрейта : Постоянный
Битрейт : 448 Кбит/сек
Каналы : 6 каналов
Расположение каналов : Front: L C R, Side: L R, LFE
Частота : 48,0 КГц
Битовая глубина : 16 бит
Метод сжатия : С потерями
Размер потока : 372 Мбайт (17%)
Язык : Russian
Меню
00:00:00.000 : en:Chapter 01
00:12:00.520 : en:Chapter 02
00:31:49.720 : en:Chapter 03
00:55:49.840 : en:Chapter 04
01:16:10.800 : en:Chapter 05
01:35:39.600 : en:Chapter 06
01:50:46.960 : en:Chapter 07
Скриншоты:

[Цитировать]



Показать сообщения:    

Текущее время: 29-Мар 05:40

Часовой пояс: UTC + 6


Вы не можете начинать темы
Вы не можете отвечать на сообщения
Вы не можете редактировать свои сообщения
Вы не можете удалять свои сообщения
Вы не можете голосовать в опросах
Вы не можете прикреплять файлы к сообщениям
Вы не можете скачивать файлы

!ВНИМАНИЕ!
Сайт не предоставляет электронные версии произведений, а занимается лишь коллекционированием и каталогизацией ссылок, присылаемых и публикуемых на форуме нашими читателями. Если вы являетесь правообладателем какого-либо представленного материала и не желаете, чтобы ссылка на него находилась в нашем каталоге, свяжитесь с нами, и мы незамедлительно удалим ее. Файлы для обмена на трекере предоставлены пользователями сайта, и администрация не несет ответственности за их содержание. Просьба не заливать файлы, защищенные авторскими правами, а также файлы нелегального содержания!