[ Сегодня идет свободное скачивание без начисления Download ]


Статистика раздачи
Нет
 
   
 
Top  
 
 
-Два отца и два сына (1-19 серия из 20) (2013) SATRip- Русское название: Два отца два сына
Год выпуска: 2013
Производство: Россия, Yellow, Black and White
Жанр: Комедия
Дата российской премьеры: 21 октября 2013
Режиссер: Радда Новикова
Актеры: Дмитрий Нагиев, Максим Студеновский, Илья Костюков, Алика Смехова, Виктория Лукина, Тимур Ефременков, Ангелина Притуманова, Светлана Гера, Юлия Долготович
Описание фильма:
Павел Гуров (Дмитрий Нагиев) - успешный актер, играющий в популярном телесериале отважного, честного майора полиции Лаврова. В жизни Гуров состоявшийся человек, состоятельный Казанова, который прожигает жизнь ради собственных удовольствий.
Всё меняется, когда на пороге его элитной квартиры появляется Виктор (Максим Студеновский) - сын, которого Павел бросил 20 лет назад, уехав в Москву строить свою актерскую карьеру. Витя приезжает вместе с внуком Владом (Илья Костюков), которого Павел вообще никогда не видел. Виктор - полная противоположность Павла, самоуверенный неудачник, зануда, однолюб. Влад - смышлёный инициативный мальчик.
Витя попал в Москву вслед за своей женой, которая бросила их с Владом в Брянске, уехав в Москву с мечтами стать актрисой. Виктор уверен, что за пару дней убедит жену вернуться в семью и они вернутся в Брянск. Собственно на эти пару дней он и приехал к отцу, но, в силу обстоятельств, остаются у него жить навсегда. И теперь нашим героям придётся найти общий язык и способы уживаться вместе.
Сумеет ли Виктор простить отца? Сумеет ли Павел не упустить второй шанс стать хорошим родителем? И как будет Влад существовать между этими двумя «враждующими сторонами»?

Продолжительность: 00:24:25 серия
Качество видео: SATRip
Видеокодек: XviD
Битрейт видео: 1501 kbps
Размер кадра: 720x400
Аудиокодек: MP3, 2 ch
Битрейт аудио: 128 kbps

Внимание! Раздача ведётся путём добавления новых серий. Описание обновления торрента:

Внимание! Раздача ведётся путём добавления новых серий; при каждом добавлении создётся новый торрент. Чтобы начать докачку новой серии, пользователям необходимо сделать следующее:
(1) остановить скачивание,
(2) удалить старый торрент у себя из клиента (старые серии удалять не надо),
(3) скачать новый торрент и запустить его у себя в клиенте вместо старого, при этом указать клиенту путь в старую папку куда и должно происходить скачивание новых серий.
Ваш клиент при этом должен произвести хеширование (проверку) старой папки (если не производит сам - помогите ему сделать это), и будет докачивать только те серии которых у вас ещё нет. Старые серии при этом не удаляются, а продолжают раздаваться!
Eсли вы уже удалили старые серии, то предотвратить повторную закачку старых серий можно, отжав галочку в соответсвующих местах при запуске нового торрента. По возможности, желательно не удалять старые серии как можно дольше чтобы релизёр не столько продолжал раздавать старые серии, а смог сконцентрироваться на новых

MI

Общее
Полное имя                               : D:\НЕ УДАЛЯТЬ!!!\Dva.otca.i.dva.syna.2013.SATRip.NNM-CLUB\01.serija.avi
Формат                                   : AVI
Формат/Информация                        : Audio Video Interleave
Размер файла                             : 286 Мбайт
Продолжительность                        : 24 м.
Общий поток                              : 1638 Кбит/сек
Библиотека кодирования                   : VirtualDub build 32706/release
Видео
Идентификатор                            : 0
Формат                                   : MPEG-4 Visual
Профиль формата                          : Advanced Simple@L5
Параметр BVOP формата                    : 2
Параметр QPel формата                    : Нет
Параметр GMC формата                     : Без точки перехода
Параметр матрицы формата                 : Default (MPEG)
Идентификатор кодека                     : XVID
Идентификатор кодека/Подсказка           : XviD
Продолжительность                        : 24 м.
Битрейт                                  : 1501 Кбит/сек
Ширина                                   : 720 пикселей
Высота                                   : 400 пикселей
Соотношение сторон                       : 16:9
Частота кадров                           : 25,000 кадров/сек
Цветовое пространство                    : YUV
Субдискретизация насыщенности            : 4:2:0
Битовая глубина                          : 8 бит
Тип развёртки                            : Прогрессивная
Метод сжатия                             : С потерями
Бит/(Пиксели*Кадры)                      : 0.208
Размер потока                            : 262 Мбайт (92%)
Библиотека кодирования                   : XviD 1.2.1 (UTC 2008-12-04)
Аудио
Идентификатор                            : 1
Формат                                   : MPEG Audio
Версия формата                           : Version 1
Профиль формата                          : Layer 3
Режим                                    : Joint stereo
Расширение режима                        : MS Stereo
Идентификатор кодека                     : 55
Идентификатор кодека/Подсказка           : MP3
Продолжительность                        : 24 м.
Вид битрейта                             : Постоянный
Битрейт                                  : 128 Кбит/сек
Каналы                                   : 2 канала
Частота                                  : 48,0 КГц
Метод сжатия                             : С потерями
Размер потока                            : 22,4 Мбайт (8%)
Выравнивание                             : Разделение по промежуткам
Продолжительность промежутка             : 40  мс. (1,00 видеокадр)
Время предзагрузки промежутка            : 500  мс.
Скриншоты:

[Цитировать]

Топик был перенесен из форума Отечественные сериалы в форум Архив
cyrmos



Показать сообщения:    

Текущее время: 25-Апр 08:48

Часовой пояс: UTC + 6


Вы не можете начинать темы
Вы не можете отвечать на сообщения
Вы не можете редактировать свои сообщения
Вы не можете удалять свои сообщения
Вы не можете голосовать в опросах
Вы не можете прикреплять файлы к сообщениям
Вы не можете скачивать файлы

!ВНИМАНИЕ!
Сайт не предоставляет электронные версии произведений, а занимается лишь коллекционированием и каталогизацией ссылок, присылаемых и публикуемых на форуме нашими читателями. Если вы являетесь правообладателем какого-либо представленного материала и не желаете, чтобы ссылка на него находилась в нашем каталоге, свяжитесь с нами, и мы незамедлительно удалим ее. Файлы для обмена на трекере предоставлены пользователями сайта, и администрация не несет ответственности за их содержание. Просьба не заливать файлы, защищенные авторскими правами, а также файлы нелегального содержания!