[ Сегодня идет свободное скачивание без начисления Download ]


Статистика раздачи
Нет
 
   
 
Top  
 
 
-Одноклассники 2 / Grown Ups 2 (2013) BDRip«They'll do anything for their families... except grow up»- Год выпуска: 2013
Производство: США / Columbia Pictures, Happy Madison Productions, Sony Pictures Entertainment (SPE)
Жанр: Комедия
Перевод: Дублированный (лицензия)
Субтитры: Вшитые отключаемые
Язык субтитров: Русский, Aнглийский
Дата мировой премьеры: 11 июля 2013
Дата российской премьеры: 29 августа 2013, «WDSSPR»
Дата выхода DVD / Blu-Ray релиза: 26 ноября 2013, «Columbia/Sony»
Режиссер: Деннис Дуган
Продюсер: Джек Джиррапуто, Адам Сэндлер, Кевин Грэйди
Актеры: Адам Сэндлер, Кевин Джеймс, Крис Рок, Дэвид Спейд, Сальма Хайек, Майя Рудольф, Мария Белло, Ник Свардсон, Стив Бушеми, Колин Куинн
Описание фильма:
После того как Ленни Федер переезжает с семьей обратно в родной город, он и его друзья извлекут немало уроков, когда их дети окончат школу…

Продолжительность: 01:40:58
Качество видео: BDRip 720p
Видеокодек: MPEG-4 AVC/H.264
Битрейт видео: ~4666 Kbit/s
Размер кадра: 1280 x 690
Aудио #1: AC3, 48,0 КHz, 5.1, 640 Kbit/s - Русский
Aудио #2: AC3, 48,0 КHz, 5.1, 640 Kbit/s - Украинский
Aудио #3: DTS, 48,0 КHz, 5.1, 1510 Kbit/s - Aнглийский
Дополнительно: Сохранены оригинальные чаптеры как на Blu-ray

MediaInfo

Общее
Уникальный идентификатор : 172121283835577491004841224051589016284 (0x817D5A7C63AE879F8CA3D8D156EA6ADC)
Полное имя : D:\Торренты\Одноклассники 2.2013.BDRip.720p.mkv
Формат : Matroska
Размер файла : 5,26 Гбайт
Продолжительность : 1 ч. 40 м.
Общий поток : 7460 Кбит/сек
Дата кодирования : UTC 2013-11-21 17:22:07
Программа кодирования : mkvmerge v6.3.0 ('You can't stop me!') built on Jun 28 2013 20:09:41
Библиотека кодирования : libebml v1.3.0 + libmatroska v1.4.0
Видео
Идентификатор : 1
Формат : AVC
Формат/Информация : Advanced Video Codec
Профиль формата : High@L4.1
Параметр CABAC формата : Да
Параметр ReFrames формата : 8 кадров
Идентификатор кодека : V_MPEG4/ISO/AVC
Продолжительность : 1 ч. 40 м.
Битрейт : 4666 Кбит/сек
Ширина : 1280 пикс.
Высота : 690 пикс.
Соотношение сторон : 1,855
Частота кадров : 23,976 кадр/сек
Цветовое пространство : YUV
Подвыборка цветности : 4:2:0
Битовая глубина : 8 бит
Тип развёртки : Прогрессивная
Бит/(Пиксели*Кадры) : 0.220
Размер потока : 3,19 Гбайт (61%)
Библиотека кодирования : x264 core 138 r2356 a1d3d17
Настройки программы : cabac=1 / ref=8 / deblock=1:-3:-3 / analyse=0x3:0x113 / me=umh / subme=10 / psy=1 / psy_rd=1.00:0.05 / mixed_ref=1 / me_range=32 / chroma_me=1 / trellis=2 / 8x8dct=1 / cqm=0 / deadzone=21,11 / fast_pskip=0 / chroma_qp_offset=-2 / threads=18 / lookahead_threads=1 / sliced_threads=0 / nr=0 / decimate=1 / interlaced=0 / bluray_compat=0 / constrained_intra=0 / bframes=5 / b_pyramid=2 / b_adapt=2 / b_bias=0 / direct=3 / weightb=1 / open_gop=0 / weightp=2 / keyint=250 / keyint_min=23 / scenecut=40 / intra_refresh=0 / rc=2pass / mbtree=0 / bitrate=4666 / ratetol=1.0 / qcomp=0.70 / qpmin=0 / qpmax=69 / qpstep=4 / cplxblur=20.0 / qblur=0.5 / ip_ratio=1.40 / pb_ratio=1.30 / aq=2:1.00
Язык : English
Аудио #1
Идентификатор : 2
Формат : AC-3
Формат/Информация : Audio Coding 3
Расширение режима : CM (complete main)
Идентификатор кодека : A_AC3
Продолжительность : 1 ч. 40 м.
Вид битрейта : Постоянный
Битрейт : 640 Кбит/сек
Каналы : 6 каналов
Расположение каналов : Front: L C R, Side: L R, LFE
Частота : 48,0 КГц
Битовая глубина : 16 бит
Метод сжатия : С потерями
Размер потока : 462 Мбайт (9%)
Язык : Russian
Аудио #2
Идентификатор : 3
Формат : AC-3
Формат/Информация : Audio Coding 3
Расширение режима : CM (complete main)
Идентификатор кодека : A_AC3
Продолжительность : 1 ч. 40 м.
Вид битрейта : Постоянный
Битрейт : 640 Кбит/сек
Каналы : 6 каналов
Расположение каналов : Front: L C R, Side: L R, LFE
Частота : 48,0 КГц
Битовая глубина : 16 бит
Метод сжатия : С потерями
Размер потока : 462 Мбайт (9%)
Язык : Ukrainian
Аудио #3
Идентификатор : 4
Формат : DTS
Формат/Информация : Digital Theater Systems
Идентификатор кодека : A_DTS
Продолжительность : 1 ч. 40 м.
Вид битрейта : Постоянный
Битрейт : 1510 Кбит/сек
Каналы : 6 каналов
Расположение каналов : Front: L C R, Side: L R, LFE
Частота : 48,0 КГц
Битовая глубина : 24 бит
Метод сжатия : С потерями
Размер потока : 1,06 Гбайт (20%)
Язык : English
Текст #1
Идентификатор : 5
Формат : UTF-8
Идентификатор кодека : S_TEXT/UTF8
Идентификатор кодека/Информация : UTF-8 Plain Text
Язык : Russian
Текст #2
Идентификатор : 6
Формат : UTF-8
Идентификатор кодека : S_TEXT/UTF8
Идентификатор кодека/Информация : UTF-8 Plain Text
Язык : English
Меню
00:00:00.000 : en:00:00:00.000
00:04:30.937 : en:00:04:30.937
00:12:02.555 : en:00:12:02.555
00:18:14.676 : en:00:18:14.676
00:25:34.157 : en:00:25:34.157
00:29:47.660 : en:00:29:47.660
00:37:02.386 : en:00:37:02.386
00:45:15.712 : en:00:45:15.712
00:48:53.430 : en:00:48:53.430
00:54:22.592 : en:00:54:22.592
01:00:49.937 : en:01:00:49.937
01:05:15.661 : en:01:05:15.661
01:10:52.414 : en:01:10:52.414
01:16:49.354 : en:01:16:49.354
01:23:26.793 : en:01:23:26.793
01:31:02.665 : en:01:31:02.665
Скриншоты:
[th]http://img.torrentsclub.org/di/PP5G/1cae4f7206f9efb...616efd9.png[/th] [th]http://img.torrentsclub.org/di/JST7/313e4fb794d5b5a...3ddea85.png[/th] [th]http://img.torrentsclub.org/di/BMHR/dcaa8c02b54fff7...0769e04.png[/th]
Время раздачи: 24/7 по возможности

[Цитировать]



Показать сообщения:    

Текущее время: 10-Дек 04:07

Часовой пояс: UTC + 3


Вы не можете начинать темы
Вы не можете отвечать на сообщения
Вы не можете редактировать свои сообщения
Вы не можете удалять свои сообщения
Вы не можете голосовать в опросах
Вы не можете прикреплять файлы к сообщениям
Вы не можете скачивать файлы

!ВНИМАНИЕ!
Сайт не предоставляет электронные версии произведений, а занимается лишь коллекционированием и каталогизацией ссылок, присылаемых и публикуемых на форуме нашими читателями. Если вы являетесь правообладателем какого-либо представленного материала и не желаете, чтобы ссылка на него находилась в нашем каталоге, свяжитесь с нами, и мы незамедлительно удалим ее. Файлы для обмена на трекере предоставлены пользователями сайта, и администрация не несет ответственности за их содержание. Просьба не заливать файлы, защищенные авторскими правами, а также файлы нелегального содержания!