[ Сегодня идет свободное скачивание без начисления Download ]


Статистика раздачи
Нет
 
   
 
Top  
 
 
-Северо-запад / Nordvest (2013) BDRip [720p]- -Год выпуска: 2013
Производство: Дания / Nordisk Film Production, Danmarks Radio (DR), Det Danske Filminstitut
Жанр: боевик, драма, криминал
Перевод: Профессиональный (одноголосый)
Субтитры: Вшитые отключаемые
Язык субтитров: Английский (Full)-Дата мировой премьеры: 27 января 2013
Дата российской премьеры: N/A
Дата украинской премьеры: N/A
Дата выхода DVD релиза: N/A
Дата выхода Blu Ray релиза: N/A-Режиссер: Михаэль Ноер
Актеры: Густав Дюэкьер Гис, Оскар Дюэкьер Гис, Лене Мария Кристенсен, Николас Вествуд Кидд, Роланд Мюллер, Дульфи Аль-Джабури, Клемент Блэк Петерсен-Описание фильма: Северо-запад Копенгагена является одним из самых бедных и многонациональных районов города. 18-летний Каспер живет здесь со своей матерью, младшим братом и маленькой сестрой. Чтобы свести концы с концами, он вместе со своим другом Робином совершает мелкие кражи из домов, сбывая краденое местному главарю Джамалу, контролирующему небольшую банду в этом районе. Но амбициозный Каспер не хочет, рискуя собой, зависеть от него, рыская ночью по домам за те небольшие наличные, которые он платит взамен. После встречи с Бьорном, одним из лидеров организованной преступной группировки, он соглашается работать на него, понимая, что это поможет подняться ему на совершенно иной, новый уровень в уголовной иерархии криминального мира. Поначалу все идет гладко...-
-Продолжительность: 01:30:25
Качество видео: BDRip [720p]-Видеокодек: MPEG-4 AVC/H.264, 1280x692, 8498 kbps, 24.000 fps
Аудио#1: [RUS]: AC3 5.1; 640.00 kbps; 48.0 kHz; 16-bits [Антон Алексеев]
Аудио#2: [DEN]: AC3 5.1; 640.00 kbps; 48.0 kHz; 16-bits [Оригинал]
Дополнительно: Сохранены оригинальные чаптеры как на Blu-Ray

BitrateViewer

MediaInfo:

General
Unique ID                                : 202104034202991362737125515013095374978 (0x980BD235EC4C73A7A8AC33FCCDAB4082)
Complete name                            : F:\Nordvest.2013.720p.mkv
Format                                   : Matroska
Format version                           : Version 4 / Version 2
File size                                : 6.18 GiB
Duration                                 : 1h 30mn
Overall bit rate                         : 9 780 Kbps
Encoded date                             : UTC 2013-11-21 10:27:16
Writing application                      : mkvmerge v6.3.0 ('You can't stop me!') built on Jun 28 2013 20:09:41
Writing library                          : libebml v1.3.0 + libmatroska v1.4.0
Video
ID                                       : 2
Format                                   : AVC
Format/Info                              : Advanced Video Codec
Format profile                           : [url=mailto:High@L4.1]High@L4.1[/url]
Format settings, CABAC                   : Yes
Format settings, ReFrames                : 9 frames
Codec ID                                 : V_MPEG4/ISO/AVC
Duration                                 : 1h 30mn
Bit rate                                 : 8 306 Kbps
Width                                    : 1 280 pixels
Height                                   : 692 pixels
Display aspect ratio                     : 1.85:1
Frame rate                               : 24.000 fps
Color space                              : YUV
Chroma subsampling                       : 4:2:0
Bit depth                                : 8 bits
Scan type                                : Progressive
Bits/(Pixel*Frame)                       : 0.391
Stream size                              : 5.25 GiB (85%)
Title                                    : Nordvest 2013
Language                                 : Danish
Default                                  : Yes
Forced                                   : No
Audio #1
ID                                       : 3
Format                                   : AC-3
Format/Info                              : Audio Coding 3
Mode extension                           : CM (complete main)
Format settings, Endianness              : Big
Codec ID                                 : A_AC3
Duration                                 : 1h 30mn
Bit rate mode                            : Constant
Bit rate                                 : 640 Kbps
Channel(s)                               : 6 channels
Channel positions                        : Front: L C R, Side: L R, LFE
Sampling rate                            : 48.0 KHz
Bit depth                                : 16 bits
Compression mode                         : Lossy
Stream size                              : 414 MiB (7%)
Title                                    : A. Alekseev
Language                                 : Russian
Default                                  : Yes
Forced                                   : Yes
Audio #2
ID                                       : 4
Format                                   : AC-3
Format/Info                              : Audio Coding 3
Mode extension                           : CM (complete main)
Format settings, Endianness              : Big
Codec ID                                 : A_AC3
Duration                                 : 1h 30mn
Bit rate mode                            : Constant
Bit rate                                 : 640 Kbps
Channel(s)                               : 6 channels
Channel positions                        : Front: L C R, Side: L R, LFE
Sampling rate                            : 48.0 KHz
Bit depth                                : 16 bits
Compression mode                         : Lossy
Stream size                              : 414 MiB (7%)
Language                                 : Danish
Default                                  : No
Forced                                   : No
Text
ID                                       : 1
Format                                   : UTF-8
Codec ID                                 : S_TEXT/UTF8
Codec ID/Info                            : UTF-8 Plain Text
Language                                 : English
Default                                  : Yes
Forced                                   : No
Menu
00:00:00.000                             : en:00:00:00.000
00:09:59.542                             : en:00:09:59.542
00:19:59.875                             : en:00:19:59.875
00:29:59.667                             : en:00:29:59.667
00:39:59.833                             : en:00:39:59.833
00:49:59.583                             : en:00:49:59.583
00:59:59.750                             : en:00:59:59.750
01:09:59.792                             : en:01:09:59.792
01:19:59.875                             : en:01:19:59.875
Скриншоты:-[th]http://img.torrentsclub.org/di/SP52/2b08921f232ace0...f9f77c7.png[/th] [th]http://img.torrentsclub.org/di/CNOK/4e9813cf822033e...5fad488.png[/th] [th]http://img.torrentsclub.org/di/WB9R/8ecfd34da973c55...eda5ac7.png[/th]

[Цитировать]



Показать сообщения:    

Текущее время: 08-Дек 10:58

Часовой пояс: UTC + 3


Вы не можете начинать темы
Вы не можете отвечать на сообщения
Вы не можете редактировать свои сообщения
Вы не можете удалять свои сообщения
Вы не можете голосовать в опросах
Вы не можете прикреплять файлы к сообщениям
Вы не можете скачивать файлы

!ВНИМАНИЕ!
Сайт не предоставляет электронные версии произведений, а занимается лишь коллекционированием и каталогизацией ссылок, присылаемых и публикуемых на форуме нашими читателями. Если вы являетесь правообладателем какого-либо представленного материала и не желаете, чтобы ссылка на него находилась в нашем каталоге, свяжитесь с нами, и мы незамедлительно удалим ее. Файлы для обмена на трекере предоставлены пользователями сайта, и администрация не несет ответственности за их содержание. Просьба не заливать файлы, защищенные авторскими правами, а также файлы нелегального содержания!