[ Сегодня идет свободное скачивание без начисления Download ]


Статистика раздачи
Нет
 
   
 
Top  
 
 
-Последний Элвис / The Last Elvis / El ultimo Elvis (2012) BDRip- Год выпуска: 2012
Производство: Аргентина - Anonymous Content, Instituto Nacional de Cine y Artes Audiovisuales (INCAA), K&S Films, Rebolucion
Жанр: Драма
Перевод: Одноголосый закадровый, любительский |datynet|
Субтитры: Вшитые отключаемые
Язык субтитров: Русский, английский
Режиссер: Армандо Бо / Armando Bo
Актеры: Джон МакИнерни, Гризельда Сицилиани, Маргарита Лопес, Лукреция Каррильо, Нора Чилдерс, Корина Ромеро, Дж.В. Уильямс
Описание фильма:
Фильм рассказывает о жизни известного в Буэнос Айресе сценического имитатора Элвиса Пресли - Карлоса Гутиерреза. После развода с женой, от которой он имеет меленькую дочь Лизу Мари, Карлос живёт один, работает на заводе, а всё свободное время уделяет своему хобби – музыке. Дочь редко видит своего отца, но трагическая авария заставляет Карлоса поменять свои жизненные приоритеты.
Дата мировой премьеры: 23 января 2012
Продолжительность: 01:31:30
Качество видео: BDRip 1080p
Видеокодек: MPEG-4 AVC/H.264
Видео: H264, 10.5 Мбит/с, 1920x836, 23.976 кадр/с
Аудио #1: Русский: AC3, 2.0, 192 Кбит/с, 44.1kHz, 16 bit - одноголосый закадровый
Аудио #2: Испанский: DTS, 5.1, 1536 Кбит/с, 48 kHz, 24 bit
Сохранены оригинальные чаптеры как на Blu-Ray

MediaInfo:

Общее
Уникальный идентификатор : 247999452861204152665505859594146091714 (0xBA92F50E0DF290168B7E5B0C7D1112C2)
Полное имя : D:\Video\The.Last.Elvis.2012.BDRip.1080p.mkv
Формат : Matroska
Версия формата : Version 4 / Version 2
Размер файла : 7,70 Гбайт
Продолжительность : 1 ч. 31 м.
Общий поток : 12,0 Мбит/сек
Дата кодирования : UTC 2013-11-20 21:10:33
Программа кодирования : mkvmerge v6.5.0 ('Isn't she lovely') built on Oct 20 2013 12:50:05
Библиотека кодирования : libebml v1.3.0 + libmatroska v1.4.1
Видео
Идентификатор : 1
Формат : AVC
Формат/Информация : Advanced Video Codec
Профиль формата : High@L4.1
Параметр CABAC формата : Да
Параметр ReFrames формата : 5 кадров
Идентификатор кодека : V_MPEG4/ISO/AVC
Продолжительность : 1 ч. 31 м.
Битрейт : 10,5 Мбит/сек
Ширина : 1920 пикселей
Высота : 836 пикселей
Соотношение сторон : 2,25:1
Режим частоты кадров : Постоянный
Частота кадров : 23,976 кадра/сек
Цветовое пространство : YUV
Субдискретизация насыщенности : 4:2:0
Битовая глубина : 8 бит
Тип развёртки : Прогрессивная
Бит/(Пиксели*Кадры) : 0.272
Размер потока : 6,46 Гбайт (84%)
Библиотека кодирования : x264 core 130 r2273 b3065e6
Настройки программы : cabac=1 / ref=5 / deblock=1:-3:-3 / analyse=0x3:0x113 / me=umh / subme=8 / psy=1 / psy_rd=1.00:0.00 / mixed_ref=1 / me_range=16 / chroma_me=1 / trellis=1 / 8x8dct=1 / cqm=0 / deadzone=21,11 / fast_pskip=1 / chroma_qp_offset=-2 / threads=16 / lookahead_threads=2 / sliced_threads=0 / nr=0 / decimate=1 / interlaced=0 / bluray_compat=0 / constrained_intra=0 / bframes=3 / b_pyramid=2 / b_adapt=2 / b_bias=0 / direct=3 / weightb=1 / open_gop=0 / weightp=2 / keyint=240 / keyint_min=23 / scenecut=40 / intra_refresh=0 / rc_lookahead=50 / rc=abr / mbtree=1 / bitrate=10459 / ratetol=1.0 / qcomp=0.60 / qpmin=0 / qpmax=69 / qpstep=4 / ip_ratio=1.40 / aq=1:1.00
Язык : English
Default : Да
Forced : Нет
Аудио #1
Идентификатор : 2
Формат : AC-3
Формат/Информация : Audio Coding 3
Расширение режима : CM (complete main)
Параметр Endianness формата : Big
Идентификатор кодека : A_AC3
Продолжительность : 1 ч. 31 м.
Вид битрейта : Постоянный
Битрейт : 192 Кбит/сек
Каналы : 2 канала
Расположение каналов : Front: L R
Частота : 44,1 КГц
Битовая глубина : 16 бит
Метод сжатия : С потерями
Размер потока : 126 Мбайт (2%)
Заголовок : datynet
Язык : Russian
Default : Да
Forced : Да
Аудио #2
Идентификатор : 3
Формат : DTS
Формат/Информация : Digital Theater Systems
Режим : 16
Параметр Endianness формата : Big
Идентификатор кодека : A_DTS
Продолжительность : 1 ч. 31 м.
Вид битрейта : Постоянный
Битрейт : 1509 Кбит/сек
Каналы : 6 каналов
Расположение каналов : Front: L C R, Side: L R, LFE
Частота : 48,0 КГц
Битовая глубина : 24 бит
Метод сжатия : С потерями
Размер потока : 988 Мбайт (13%)
Язык : Spanish
Default : Нет
Forced : Нет
Текст #1
Идентификатор : 4
Формат : UTF-8
Идентификатор кодека : S_TEXT/UTF8
Идентификатор кодека/Информация : UTF-8 Plain Text
Заголовок : Валерий Смирнов
Язык : Russian
Default : Нет
Forced : Нет
Текст #2
Идентификатор : 5
Формат : UTF-8
Идентификатор кодека : S_TEXT/UTF8
Идентификатор кодека/Информация : UTF-8 Plain Text
Язык : English
Default : Нет
Forced : Нет
Меню
00:00:00.000 : en:00:00:00.000
00:09:03.626 : en:00:09:03.626
00:20:22.388 : en:00:20:22.388
00:28:20.324 : en:00:28:20.324
00:39:45.842 : en:00:39:45.842
00:47:55.664 : en:00:47:55.664
00:57:29.029 : en:00:57:29.029
01:06:49.255 : en:01:06:49.255
01:15:35.030 : en:01:15:35.030
01:23:14.406 : en:01:23:14.406
Скриншоты:[th]http://img.torrentsclub.org/di/7HYH/1a1de7489cf8350...8bb77dd.png[/th] [th]http://img.torrentsclub.org/di/ENTW/76af42cc2c53893...0da3a47.png[/th] [th]http://img.torrentsclub.org/di/KZBR/ea73ba05436ecfe...54644e2.png[/th]Время раздачи: с 10:00 до 20:00 (GMT+2) - до 10 скачавшихНе забываем говорить

[Цитировать]



Показать сообщения:    

Текущее время: 10-Дек 02:06

Часовой пояс: UTC + 3


Вы не можете начинать темы
Вы не можете отвечать на сообщения
Вы не можете редактировать свои сообщения
Вы не можете удалять свои сообщения
Вы не можете голосовать в опросах
Вы не можете прикреплять файлы к сообщениям
Вы не можете скачивать файлы

!ВНИМАНИЕ!
Сайт не предоставляет электронные версии произведений, а занимается лишь коллекционированием и каталогизацией ссылок, присылаемых и публикуемых на форуме нашими читателями. Если вы являетесь правообладателем какого-либо представленного материала и не желаете, чтобы ссылка на него находилась в нашем каталоге, свяжитесь с нами, и мы незамедлительно удалим ее. Файлы для обмена на трекере предоставлены пользователями сайта, и администрация не несет ответственности за их содержание. Просьба не заливать файлы, защищенные авторскими правами, а также файлы нелегального содержания!