[ Сегодня идет свободное скачивание без начисления Download ]


Статистика раздачи
Нет
 
   
 
Top  
 
 
-Воскрешение / A Resurrection (2013) HDRip- Год выпуска: 2013
Производство: США
Жанр: Триллер
Перевод: Дублированный (лицензия)
Дата мировой премьеры: 22 марта 2013
Дата российской премьеры: 15 августа 2013, «АКМ»
Дата выхода DVD релиза: 24 сентября 2013, «Флагман-Трейд»
Режиссер: Мэтт Орландо
Актеры: Миша Бартон, Девон Сава, Майкл Кларк Дункан, Джонатан Майкл Траутмэнн, Стюарт Стоун, Николас Джендл, Мэттью Уиллиг, Аланна Романски, Морган Волк, Бренден М. Смит
Описание фильма:
История о подростке, который похоронил своего родного брата, но не хочет признать и поверить в это. С ним долгое время работает психолог, который пытается ему это объяснить, но подросток на каждом сеансе отрицает факт смерти. Вскоре полицейские обнаруживают вскрытую могилу, из которой исчезло тело брата. После этого, по мистическому совпадению, подросток начинает видеть убийства, которые должны совершиться в ближайшее время и рисует их в своих рисунках. Психологи и полиция начинают работать с подростком, но открытие поражает их сознание.
Продолжительность: 01:30:20
Качество видео: HDRip
Видеокодек: Xvid
Битрейт видео: ~1857 kb/s
Размер кадра: 704x352
Аудиокодек: AC3 5.1
Битрейт аудио: 448 kb/s

MediaInfo:

Общее
Полное имя : C:Торренты\Воскрешение.2013.HDRip.avi
Формат : AVI
Формат/Информация : Audio Video Interleave
Размер файла : 1,46 Гбайт
Продолжительность : 1 ч. 30 м.
Общий поток : 2317 Кбит/сек
Программа кодирования : VirtualDubMod 1.5.10.3 (build 2550/release)
Библиотека кодирования : VirtualDubMod build 2550/release
Видео
Идентификатор : 0
Формат : MPEG-4 Visual
Профиль формата : Advanced [email protected]
Параметр BVOP формата : 1
Параметр QPel формата : Нет
Параметр GMC формата : Без точки перехода
Параметр матрицы формата : Выборочная
Идентификатор кодека : XVID
Идентификатор кодека/Подсказка : XviD
Продолжительность : 1 ч. 30 м.
Битрейт : 1857 Кбит/сек
Ширина : 704 пикселя
Высота : 352 пикселя
Соотношение сторон : 2,000
Частота кадров : 29,970 кадров/сек
Цветовое пространство : YUV
Субдискретизация насыщенности : 4:2:0
Битовая глубина : 8 бит
Тип развёртки : Прогрессивная
Метод сжатия : С потерями
Бит/(Пиксели*Кадры) : 0.250
Размер потока : 1,17 Гбайт (80%)
Библиотека кодирования : XviD 65
Аудио
Идентификатор : 1
Формат : AC-3
Формат/Информация : Audio Coding 3
Расширение режима : CM (complete main)
Параметр Endianness формата : Big
Идентификатор кодека : 2000
Продолжительность : 1 ч. 30 м.
Вид битрейта : Постоянный
Битрейт : 448 Кбит/сек
Каналы : 6 каналов
Расположение каналов : Front: L C R, Side: L R, LFE
Частота : 48,0 КГц
Битовая глубина : 16 бит
Метод сжатия : С потерями
Размер потока : 289 Мбайт (19%)
Выравнивание : Разделение по промежуткам
Продолжительность промежутка : 33 мс. (1,00 видеокадр)
Время предзагрузки промежутка : 500 мс.
Скриншоты:[th]http://img.torrentsclub.org/di/WHG1/3nSVDPp.jpg[/th] [th]http://img.torrentsclub.org/di/JAO0/7cMbrZL.jpg[/th] [th]http://img.torrentsclub.org/di/SU7J/Pm7qhLX.jpg[/th]Время раздачи: с 10.00 до 22.00

[Цитировать]

Топик был перенесен из форума Новинки кинопроката в форум Триллер
Henkok



Показать сообщения:    

Текущее время: 06-Дек 11:18

Часовой пояс: UTC + 3


Вы не можете начинать темы
Вы не можете отвечать на сообщения
Вы не можете редактировать свои сообщения
Вы не можете удалять свои сообщения
Вы не можете голосовать в опросах
Вы не можете прикреплять файлы к сообщениям
Вы не можете скачивать файлы

!ВНИМАНИЕ!
Сайт не предоставляет электронные версии произведений, а занимается лишь коллекционированием и каталогизацией ссылок, присылаемых и публикуемых на форуме нашими читателями. Если вы являетесь правообладателем какого-либо представленного материала и не желаете, чтобы ссылка на него находилась в нашем каталоге, свяжитесь с нами, и мы незамедлительно удалим ее. Файлы для обмена на трекере предоставлены пользователями сайта, и администрация не несет ответственности за их содержание. Просьба не заливать файлы, защищенные авторскими правами, а также файлы нелегального содержания!