[ Сегодня идет свободное скачивание без начисления Download ]


Статистика раздачи
Нет
 
   
 
Top  
 
 
-(Не)жданный принц / Un prince (presque) charmant (2013) DVDRip- Год выпуска: 2013
Производство: Франция, EuropaCorp, TF1 Films Production, Canal+
Жанр: Комедия, Мелодрама
Перевод: Дублированный | Лицензия |
Субтитры: Отсутствуют
Дата мировой премьеры: 9 января 2013
Дата российской премьеры: 25 апреля 2013, «Bazelevs Distribution», «All Media»
Дата выхода DVD релиза: 13 августа 2013, «Флагман-Трейд»
Режиссер: Филипп Леллуш
Продюсер: Люк Бессон
Актеры: Венсан Перес, Ваина Джоканте, Жером Киршер, Хлоя Куллу, Жак Вебер, Николь Кальфан, Мусса Мааскри, Коме Левин, Жюдит Сибони, Пьер Лаплейс
Описание фильма:
Разведенный карьерист и циник Жан-Марк не остановится ни перед чем для достижения своих целей. За подготовкой крупного контракта он едва не пропускает свадьбу собственной дочери и лишь за два дня до торжества собирается в путь. Дорога обернется для героя встречей с его полной противоположностью, романтичной и бескорыстной девушкой Мари, которая, вопреки духу времени, мечтает о принце на белом коне…

Продолжительность: 01:23:32
Качество видео: DVDRip
Видеокодек: XviD
Битрейт видео: 1900 kb/s
Размер кадра: 720x304
Аудиокодек: AC3, 6 ch
Битрейт аудио: 448 kb/s

MI

Общее
Полное имя                               : D:\Раздачи\Nezhdannyj.princ.2013.DVDRip.NNM-CLUB.avi
Формат                                   : AVI
Формат/Информация                        : Audio Video Interleave
Размер файла                             : 1,37 Гбайт
Продолжительность                        : 1 ч. 23 м.
Общий поток                              : 2358 Кбит/сек
Программа кодирования                    : VirtualDubMod 1.5.10.3 | (build 2550/release)
Библиотека кодирования                   : VirtualDubMod build 2550/release
Видео
Идентификатор                            : 0
Формат                                   : MPEG-4 Visual
Профиль формата                          : Advanced [email protected]
Параметр BVOP формата                    : 2
Параметр QPel формата                    : Нет
Параметр GMC формата                     : Без точки перехода
Параметр матрицы формата                 : Default (MPEG)
Идентификатор кодека                     : XVID
Идентификатор кодека/Подсказка           : XviD
Продолжительность                        : 1 ч. 23 м.
Битрейт                                  : 1900 Кбит/сек
Ширина                                   : 720 пикселей
Высота                                   : 304 пикселя
Соотношение сторон                       : 2,35:1
Частота кадров                           : 25,000 кадров/сек
Цветовое пространство                    : YUV
Субдискретизация насыщенности            : 4:2:0
Битовая глубина                          : 8 бит
Тип развёртки                            : Прогрессивная
Метод сжатия                             : С потерями
Бит/(Пиксели*Кадры)                      : 0.347
Размер потока                            : 1,10 Гбайт (81%)
Библиотека кодирования                   : XviD 1.2.1 (UTC 2008-12-04)
Аудио
Идентификатор                            : 1
Формат                                   : AC-3
Формат/Информация                        : Audio Coding 3
Расширение режима                        : CM (complete main)
Параметр Endianness формата              : Big
Идентификатор кодека                     : 2000
Продолжительность                        : 1 ч. 23 м.
Вид битрейта                             : Постоянный
Битрейт                                  : 448 Кбит/сек
Каналы                                   : 6 каналов
Расположение каналов                     : Front: L C R, Side: L R, LFE
Частота                                  : 48,0 КГц
Битовая глубина                          : 16 бит
Метод сжатия                             : С потерями
Размер потока                            : 266 Мбайт (19%)
Выравнивание                             : Разделение по промежуткам
Продолжительность промежутка             : 40  мс. (1,00 видеокадр)
Время предзагрузки промежутка            : 500  мс.

Скриншоты



Последний раз редактировалось: Henkok (2013-11-27 20:15), всего редактировалось 1 раз

[Цитировать]

Постер - ссылка на посторонний ресурс.

[Цитировать]



Показать сообщения:    

Текущее время: 06-Дек 19:06

Часовой пояс: UTC + 3


Вы не можете начинать темы
Вы не можете отвечать на сообщения
Вы не можете редактировать свои сообщения
Вы не можете удалять свои сообщения
Вы не можете голосовать в опросах
Вы не можете прикреплять файлы к сообщениям
Вы не можете скачивать файлы

!ВНИМАНИЕ!
Сайт не предоставляет электронные версии произведений, а занимается лишь коллекционированием и каталогизацией ссылок, присылаемых и публикуемых на форуме нашими читателями. Если вы являетесь правообладателем какого-либо представленного материала и не желаете, чтобы ссылка на него находилась в нашем каталоге, свяжитесь с нами, и мы незамедлительно удалим ее. Файлы для обмена на трекере предоставлены пользователями сайта, и администрация не несет ответственности за их содержание. Просьба не заливать файлы, защищенные авторскими правами, а также файлы нелегального содержания!