[ Сегодня идет свободное скачивание без начисления Download ]


Статистика раздачи
Нет
 
   
 
Top  
 
 
-Северо-запад / Nordvest (2013) BDRip [H.264]
Год выпуска: 2013
Производство: Дания
Жанр: Боевик, Драма, Криминал
Перевод: Одноголосый закадровый, профессиональный (Антон Алексеев)
Дата мировой премьеры: 27 января 2013
Режиссер: Михаэль Ноер
Актеры: Густав Дюэкьер Гис, Оскар Дюэкьер Гис, Лене Мария Кристенсен, Николас Вествуд Кидд, Роланд Мюллер, Дульфи Аль-Джабури, Клемент Блэк Петерсен...
Описание фильма: Северо-запад Копенгагена является одним из самых бедных и многонациональных районов города. 18-летний Каспер живет здесь со своей матерью, младшим братом и маленькой сестрой. Чтобы свести концы с концами, он вместе со своим другом Робином совершает мелкие кражи из домов, сбывая краденое местному главарю Джамалу, контролирующему небольшую банду в этом районе. Но амбициозный Каспер не хочет, рискуя собой, зависеть от него, рыская ночью по домам за те небольшие наличные, которые он платит взамен. После встречи с Бьорном, одним из лидеров организованной преступной группировки, он соглашается работать на него, понимая, что это поможет подняться ему на совершенно иной, новый уровень в уголовной иерархии криминального мира. Поначалу все идет гладко…

Продолжительность: 01:30:25
Качество видео: BDRip [H.264]
Видеокодек: MPEG-4 AVC/H.264
Битрейт видео: ~1851 kbps
Размер кадра: 960x512
Аудиокодек: AC3 5.1
Битрейт аудио: 448.00 kbps
Сэмпл: Скачать
&

MediaInfo

Общее
Уникальный идентификатор : 206955610461596467350624506107543811305 (0x9BB23363594D25FE8B8006D610CDF4E9)
Полное имя : D:\Torrent\Nordvest.2013.BDRip-AVC.mkv
Формат : Matroska
Версия формата : Version 4 / Version 2
Размер файла : 1,45 Гбайт
Продолжительность : 1 ч. 30 м.
Общий поток : 2299 Кбит/сек
Название фильма : Северо-запад / Nordwest (2013) BDRip-AVC rip by Rulya74
Дата кодирования : UTC 2013-11-23 16:15:07
Программа кодирования : mkvmerge v6.2.0 ('Promised Land') built on Apr 28 2013 12:22:01
Библиотека кодирования : libebml v1.3.0 + libmatroska v1.4.0
Видео
Идентификатор : 1
Формат : AVC
Формат/Информация : Advanced Video Codec
Профиль формата : High@L4.1
Параметр CABAC формата : Да
Параметр ReFrames формата : 8 кадров
Идентификатор кодека : V_MPEG4/ISO/AVC
Продолжительность : 1 ч. 30 м.
Битрейт : 1851 Кбит/сек
Ширина : 960 пикселей
Высота : 512 пикселей
Соотношение сторон : 1,85:1
Режим частоты кадров : Постоянный
Частота кадров : 24,000 кадра/сек
Цветовое пространство : YUV
Субдискретизация насыщенности : 4:2:0
Битовая глубина : 8 бит
Тип развёртки : Прогрессивная
Бит/(Пиксели*Кадры) : 0.157
Размер потока : 1,14 Гбайт (79%)
Библиотека кодирования : x264 core 133 r2334 a3ac64b
Настройки программы : cabac=1 / ref=8 / deblock=1:-2:-1 / analyse=0x3:0x113 / me=umh / subme=11 / psy=1 / psy_rd=1.00:0.00 / mixed_ref=1 / me_range=48 / chroma_me=1 / trellis=2 / 8x8dct=1 / cqm=0 / deadzone=21,11 / fast_pskip=0 / chroma_qp_offset=-2 / threads=4 / lookahead_threads=1 / sliced_threads=0 / nr=0 / decimate=1 / interlaced=0 / bluray_compat=0 / constrained_intra=0 / bframes=3 / b_pyramid=2 / b_adapt=1 / b_bias=0 / direct=3 / weightb=1 / open_gop=0 / weightp=2 / keyint=240 / keyint_min=22 / scenecut=40 / intra_refresh=0 / rc_lookahead=40 / rc=2pass / mbtree=1 / bitrate=1851 / ratetol=1.0 / qcomp=0.60 / qpmin=10 / qpmax=69 / qpstep=4 / cplxblur=20.0 / qblur=0.5 / vbv_maxrate=62500 / vbv_bufsize=78125 / nal_hrd=none / ip_ratio=1.40 / aq=1:1.00
Default : Да
Forced : Нет
Аудио
Идентификатор : 2
Формат : AC-3
Формат/Информация : Audio Coding 3
Расширение режима : CM (complete main)
Параметр Endianness формата : Big
Идентификатор кодека : A_AC3
Продолжительность : 1 ч. 30 м.
Вид битрейта : Постоянный
Битрейт : 448 Кбит/сек
Каналы : 6 каналов
Расположение каналов : Front: L C R, Side: L R, LFE
Частота : 48,0 КГц
Битовая глубина : 16 бит
Метод сжатия : С потерями
Размер потока : 290 Мбайт (19%)
Заголовок : Авторский одноголосый (Антон Алексеев)
Язык : Russian
Default : Да
Forced : Нет
Скриншоты:

Время раздачи: с 9:00 до 23:00

[Цитировать]



Показать сообщения:    

Текущее время: 07-Дек 15:37

Часовой пояс: UTC + 3


Вы не можете начинать темы
Вы не можете отвечать на сообщения
Вы не можете редактировать свои сообщения
Вы не можете удалять свои сообщения
Вы не можете голосовать в опросах
Вы не можете прикреплять файлы к сообщениям
Вы не можете скачивать файлы

!ВНИМАНИЕ!
Сайт не предоставляет электронные версии произведений, а занимается лишь коллекционированием и каталогизацией ссылок, присылаемых и публикуемых на форуме нашими читателями. Если вы являетесь правообладателем какого-либо представленного материала и не желаете, чтобы ссылка на него находилась в нашем каталоге, свяжитесь с нами, и мы незамедлительно удалим ее. Файлы для обмена на трекере предоставлены пользователями сайта, и администрация не несет ответственности за их содержание. Просьба не заливать файлы, защищенные авторскими правами, а также файлы нелегального содержания!