[ Сегодня идет свободное скачивание без начисления Download ]


Статистика раздачи
Нет
 
   
 
Top  
 
 
-Кома (2013) DVDRip- Год выпуска: 2013
Производство: Россия, FILM ART Fundamentals
Жанр: Драма, Криминал, Детектив
Описание фильма:В линейном отделе ОВД царит параноидальная атмосфера: сотрудников подозревают в краже партии наркотиков, оперативники на взводе, от прямых ответов уклоняются, явно что-то недоговаривают, а давление со стороны начальства только усугубляет положение. К тому же оперативник убойного отдела Валерий Постовалов никак не может оправиться от трагедии: несколько месяцев назад в ДТП погибла его семья — жена и дочка, а друг и коллега Юрий Гросс, который вёз их в аэропорт, чудом выжил. Он долго лежал в коме, перенес несколько операций, частично потерял память, но классные врачи и дорогие лекарства сделали свое дело: мужчина пошел на поправку. Валера, тем временем, наоборот, идет ко дну — спивается. С появлением в отделе бойкой девушки-лейтенанта Татьяны Баталовой события начинают развиваться стремительно. История с исчезнувшей с места преступления партии наркотиков набирает обороты. Всем очевидно, что порошок украл кто-то из своих, но кто? Ответ на этот вопрос интересует как начальство, так и хладнокровных убийц, жаждущих вернуть наркотик…Режиссер: Андрей Либенсон
Продюсер: Алексей Гуськов, Андрей Либенсон, Яков Драбкин
Актеры: Алексей Гуськов, Виталий Коваленко, Александра Мареева, Юрий Ицков, Константин Воробьев, Денис Синявский, Игорь Копылов, Денис Старков, Алексей Ведерников, Алексей Фокин, Олег Алмазов, Ирина Полянская, Геннадий Алимпиев
Продолжительность: 01:35:27
Качество видео: DVDRip

Видеокодек: Xvid
Битрейт видео: ~1732 kb/s
Размер кадра: 720x384
Аудиокодек: AC3 5.1
Битрейт аудио: 448 kb/s
Сэмпл: Ссылка

MediaInfo

Общее
Полное имя : D:\Фильмы\Koma.2012.O.DVDRip.1.46Gb.avi
Формат : AVI
Формат/Информация : Audio Video Interleave
Размер файла : 1,46 Гбайт
Продолжительность : 1 ч. 35 м.
Общий поток : 2189 Кбит/сек
Программа кодирования : VirtualDubMod 1.5.10.3 | www.virtualdub-fr.org || (build 2550/release)
Библиотека кодирования : VirtualDubMod build 2550/release
Видео
Идентификатор : 0
Формат : MPEG-4 Visual
Профиль формата : Advanced [email protected]
Параметр BVOP формата : 2
Параметр QPel формата : Нет
Параметр GMC формата : Без точки перехода
Параметр матрицы формата : Default (MPEG)
Идентификатор кодека : XVID
Идентификатор кодека/Подсказка : XviD
Продолжительность : 1 ч. 35 м.
Битрейт : 1732 Кбит/сек
Ширина : 720 пикселей
Высота : 384 пикселя
Соотношение сторон : 1,85:1
Частота кадров : 25,000 кадров/сек
Цветовое пространство : YUV
Субдискретизация насыщенности : 4:2:0
Битовая глубина : 8 бит
Тип развёртки : Прогрессивная
Метод сжатия : С потерями
Бит/(Пиксели*Кадры) : 0.251
Размер потока : 1,15 Гбайт (79%)
Библиотека кодирования : XviD 1.2.1 (UTC 2008-12-04)
Аудио
Идентификатор : 1
Формат : AC-3
Формат/Информация : Audio Coding 3
Расширение режима : CM (complete main)
Параметр Endianness формата : Big
Идентификатор кодека : 2000
Продолжительность : 1 ч. 35 м.
Вид битрейта : Постоянный
Битрейт : 448 Кбит/сек
Каналы : 6 каналов
Расположение каналов : Front: L C R, Side: L R, LFE
Частота : 48,0 КГц
Битовая глубина : 16 бит
Метод сжатия : С потерями
Размер потока : 306 Мбайт (20%)
Выравнивание : Разделение по промежуткам
Продолжительность промежутка : 40 мс. (1,00 видеокадр)
Время предзагрузки промежутка : 500 мс.
Скриншоты:

[Цитировать]



Показать сообщения:    

Текущее время: 04-Дек 05:01

Часовой пояс: UTC + 3


Вы не можете начинать темы
Вы не можете отвечать на сообщения
Вы не можете редактировать свои сообщения
Вы не можете удалять свои сообщения
Вы не можете голосовать в опросах
Вы не можете прикреплять файлы к сообщениям
Вы не можете скачивать файлы

!ВНИМАНИЕ!
Сайт не предоставляет электронные версии произведений, а занимается лишь коллекционированием и каталогизацией ссылок, присылаемых и публикуемых на форуме нашими читателями. Если вы являетесь правообладателем какого-либо представленного материала и не желаете, чтобы ссылка на него находилась в нашем каталоге, свяжитесь с нами, и мы незамедлительно удалим ее. Файлы для обмена на трекере предоставлены пользователями сайта, и администрация не несет ответственности за их содержание. Просьба не заливать файлы, защищенные авторскими правами, а также файлы нелегального содержания!