[ Сегодня идет свободное скачивание без начисления Download ]


Статистика раздачи
Нет
 
   
 
Top  
 
 
-Университетский вампир / Vamp U (2013) WEB-DLRip- Год выпуска: 2013
Производство: США
Жанр: Ужасы, Боевик, Комедия
Перевод: Многоголосый закадровый, профессиональный (НТВ+)
Субтитры: Вшитые отключаемые
Язык субтитров: Aнглийский
Дата мировой премьеры: 5 марта 2013
Режиссер: Мэтт Есперсен, Маклейн Нельсон
Продюсер: Брайнтон Брайан, Т.Р. Гурли, Брэд Джонсон
Актеры: Джули Гонсало, Адам Джонсон, Алексис Нэп, Гэри Коул, Маклейн Нельсон, Мэтт Маттсон, Барт Джонсон, Клэр Нидерпрюэм, Фрэнки Леванджи, Джейк Ван Вагонер
Описание фильма:
300 лет назад вампир Уэйн Грецки утратил способность «вампирствовать» после потери любви всей жизни. В наши дни он коллежский профессор, однако вампирическое проклятие продолжает преследовать его.
Продолжительность: 01:35:57
Качество видео: WEB-DLRip 720p
Видеокодек: MPEG-4 AVC/H.264
Битрейт видео: ~3645 Kbit/s
Размер кадра: 1280 x 720
Аудио #1: AC3, 48,0 КHz, 2.0, 192 Kbit/s - Русский
Aудио #2: AC3, 48,0 КHz, 5.1, 384 Kbit/s - Aнглийский
Дополнительно: Сохранены оригинальные чаптеры

MediaInfo

Общее
Уникальный идентификатор : 225667060903102831024989183902416024070 (0xA9C5E51F14D600A0B9F7403389CAB206)
Полное имя : D:\Торренты\Университетский вампир.2013.WEB-DL.720p.mkv
Формат : Matroska
Размер файла : 2,89 Гбайт
Продолжительность : 1 ч. 35 м.
Общий поток : 4306 Кбит/сек
Дата кодирования : UTC 2013-11-21 21:06:59
Программа кодирования : mkvmerge v6.5.0 ('Isn't she lovely') built on Oct 20 2013 12:50:05
Библиотека кодирования : libebml v1.3.0 + libmatroska v1.4.1
Видео
Идентификатор : 1
Формат : AVC
Формат/Информация : Advanced Video Codec
Профиль формата : High@L3.1
Параметр CABAC формата : Нет
Параметр ReFrames формата : 2 кадра
Параметры GOP формата : M=2, N=25
Идентификатор кодека : V_MPEG4/ISO/AVC
Продолжительность : 1 ч. 35 м.
Битрейт : 3645 Кбит/сек
Ширина : 1280 пикс.
Высота : 720 пикс.
Соотношение сторон : 16:9
Частота кадров : 23,976 кадр/сек
Цветовое пространство : YUV
Подвыборка цветности : 4:2:0
Битовая глубина : 8 бит
Тип развёртки : Прогрессивная
Бит/(Пиксели*Кадры) : 0.165
Размер потока : 2,44 Гбайт (85%)
Основные цвета : BT.709-5, BT.1361, IEC 61966-2-4, SMPTE RP177
Характеристики трансфера : BT.709-5, BT.1361
Коэффициенты матрицы : BT.709-5, BT.1361, IEC 61966-2-4 709, SMPTE RP177
Аудио #1
Идентификатор : 2
Формат : AC-3
Формат/Информация : Audio Coding 3
Расширение режима : CM (complete main)
Идентификатор кодека : A_AC3
Продолжительность : 1 ч. 35 м.
Вид битрейта : Постоянный
Битрейт : 192 Кбит/сек
Каналы : 2 канала
Расположение каналов : Front: L R
Частота : 48,0 КГц
Битовая глубина : 16 бит
Метод сжатия : С потерями
Размер потока : 132 Мбайт (4%)
Заголовок : Нтв+
Язык : Russian
Аудио #2
Идентификатор : 3
Формат : AC-3
Формат/Информация : Audio Coding 3
Расширение режима : CM (complete main)
Идентификатор кодека : A_AC3
Продолжительность : 1 ч. 35 м.
Вид битрейта : Постоянный
Битрейт : 384 Кбит/сек
Каналы : 6 каналов
Расположение каналов : Front: L C R, Side: L R, LFE
Частота : 48,0 КГц
Битовая глубина : 16 бит
Метод сжатия : С потерями
Размер потока : 264 Мбайт (9%)
Язык : English
Текст
Идентификатор : 4
Формат : UTF-8
Идентификатор кодека : S_TEXT/UTF8
Идентификатор кодека/Информация : UTF-8 Plain Text
Язык : English
Меню
00:00:00.000 : en:Chapter 1
00:09:55.000 : en:Chapter 2
00:17:36.000 : en:Chapter 3
00:27:36.000 : en:Chapter 4
00:37:05.000 : en:Chapter 5
00:47:05.000 : en:Chapter 6
00:59:07.000 : en:Chapter 7
01:07:48.000 : en:Chapter 8
01:14:58.000 : en:Chapter 9
01:22:50.000 : en:Chapter 10
01:32:30.000 : en:Chapter 11
[th]http://img.torrentsclub.org/di/LJG8/00a5a5412cc53a3...1337b1c.png[/th] [th]http://img.torrentsclub.org/di/7DEJ/0d8ac5c7faf6c1a...6015e90.png[/th] [th]http://img.torrentsclub.org/di/MK5F/d687a345d5b2004...908cdd0.png[/th]Время раздачи: 24/7 по возможности

[Цитировать]

Топик был перенесен из форума Новинки кинопроката в форум Ужасы
Henkok



Показать сообщения:    

Текущее время: 28-Мар 08:28

Часовой пояс: UTC + 6


Вы не можете начинать темы
Вы не можете отвечать на сообщения
Вы не можете редактировать свои сообщения
Вы не можете удалять свои сообщения
Вы не можете голосовать в опросах
Вы не можете прикреплять файлы к сообщениям
Вы не можете скачивать файлы

!ВНИМАНИЕ!
Сайт не предоставляет электронные версии произведений, а занимается лишь коллекционированием и каталогизацией ссылок, присылаемых и публикуемых на форуме нашими читателями. Если вы являетесь правообладателем какого-либо представленного материала и не желаете, чтобы ссылка на него находилась в нашем каталоге, свяжитесь с нами, и мы незамедлительно удалим ее. Файлы для обмена на трекере предоставлены пользователями сайта, и администрация не несет ответственности за их содержание. Просьба не заливать файлы, защищенные авторскими правами, а также файлы нелегального содержания!