[ Сегодня идет свободное скачивание без начисления Download ]


Статистика раздачи
Нет
 
   
 
Top  
 
 
-Скандальный дневник / Notes on a Scandal (2006) HDTVRip [H.264/720p-LQ] [Hi10P] - Год выпуска: 2006
Жанр: Триллер, Драма
Описание фильма: Преподавательница гуманитарных наук Шеба Харт заводит роман со своим пятнадцатилетним учеником. Тайная связь грозится стать достоянием общественности, когда об этом узнает другая преподавательница по имени Барбара…
Режиссер: Ричард Айр
Актеры: Джуди Денч, Кейт Бланшетт, Том Джорджсон, Майкл Мэлоуни, Джоанна Скэнлан, Шон Паркc, Эмма Кеннеди, Эндрю Симпсон, Филип Дэвис, Уэнди Ноттингэм, Билл Найи, Джуно Тэмпл
Качество видео: HDTVRip-AVC
Продолжительность: 01:31:43
Перевод: Профессиональный (многоголосый, закадровый)
Оригинальная аудио дорожка: Английская
Язык субтитров: Английский
Вид субтитров: Вшитые

Формат: MKV
Видео: MPEG-4 AVC/H.264, 1280x688 (1,85:1), 23.976fps, 1882 Кbps, 0.089bit/pixel
Аудио 1: MVO Russian, AC3, 6ch, 48 kHz, 384 kbps, (Многоголосый)
Аудио 2: English, AC3, 6ch, 48 kHz, 448 kbps, (Оригинал)

MediaInfo

Общее
Формат : Matroska
Версия формата : Version 4 / Version 2
Размер файла : 1,76 Гбайт
Продолжительность : 1 ч. 31 м.
Общий поток : 2753 Кбит/сек
Название фильма : Скандальный дневник / Notes on a Scandal (2006) HDTVRip-AVC (Sinteros)
Программа кодирования : mkvmerge v6.5.0 ('Isn't she lovely') built on Oct 20 2013 12:50:05
Библиотека кодирования : libebml v1.3.0 + libmatroska v1.4.1
Attachment : Yes
Видео
Идентификатор : 1
Формат : AVC
Формат/Информация : Advanced Video Codec
Профиль формата : High 10@L4.1
Параметр CABAC формата : Да
Параметр ReFrames формата : 11 кадров
Идентификатор кодека : V_MPEG4/ISO/AVC
Продолжительность : 1 ч. 31 м.
Битрейт : 1882 Кбит/сек
Ширина : 1280 пикселей
Высота : 688 пикселей
Соотношение сторон : 1,85:1
Режим частоты кадров : Постоянный
Частота кадров : 23,976 кадра/сек
Цветовое пространство : YUV
Субдискретизация насыщенности : 4:2:0
Битовая глубина : 10 бит
Тип развёртки : Прогрессивная
Бит/(Пиксели*Кадры) : 0.089
Размер потока : 1,20 Гбайт (68%)
Заголовок : MPEG-4 AVC/H.264, 1280x688(1,85:1), 23.976fps, 1882 Кbps, 0.089bit/pixel
Библиотека кодирования : x264 core 133 r2334 a3ac64b
Настройки программы : cabac=1 / ref=11 / deblock=1:-1:-1 / analyse=0x3:0x133 / me=tesa / subme=10 / psy=1 / psy_rd=1.00:0.15 / mixed_ref=1 / me_range=24 / chroma_me=1 / trellis=2 / 8x8dct=1 / cqm=0 / deadzone=21,11 / fast_pskip=1 / chroma_qp_offset=-3 / threads=12 / lookahead_threads=1 / sliced_threads=0 / nr=0 / decimate=1 / interlaced=0 / bluray_compat=0 / constrained_intra=0 / bframes=6 / b_pyramid=2 / b_adapt=2 / b_bias=0 / direct=3 / weightb=1 / open_gop=0 / weightp=2 / keyint=250 / keyint_min=23 / scenecut=40 / intra_refresh=0 / rc_lookahead=60 / rc=crf / mbtree=1 / crf=20.0 / qcomp=0.60 / qpmin=0 / qpmax=81 / qpstep=4 / ip_ratio=1.40 / aq=1:1.00
Язык : English
Default : Да
Forced : Нет
Аудио #1
Идентификатор : 2
Формат : AC-3
Формат/Информация : Audio Coding 3
Расширение режима : CM (complete main)
Параметр Endianness формата : Big
Идентификатор кодека : A_AC3
Продолжительность : 1 ч. 31 м.
Вид битрейта : Постоянный
Битрейт : 384 Кбит/сек
Каналы : 6 каналов
Расположение каналов : Front: L C R, Side: L R, LFE
Частота : 48,0 КГц
Битовая глубина : 16 бит
Метод сжатия : С потерями
Задержка видео : 10 мс.
Размер потока : 252 Мбайт (14%)
Заголовок : MVO Russian, AC3, 6ch, 48 kHz, 384 kbps kbps, (Многоголосый)
Язык : Russian
Default : Да
Forced : Нет
Аудио #2
Идентификатор : 3
Формат : AC-3
Формат/Информация : Audio Coding 3
Расширение режима : CM (complete main)
Параметр Endianness формата : Big
Идентификатор кодека : A_AC3
Продолжительность : 1 ч. 31 м.
Вид битрейта : Постоянный
Битрейт : 448 Кбит/сек
Каналы : 6 каналов
Расположение каналов : Front: L C R, Side: L R, LFE
Частота : 48,0 КГц
Битовая глубина : 16 бит
Метод сжатия : С потерями
Размер потока : 294 Мбайт (16%)
Заголовок : English, AC3, 6ch, 48 kHz, 448 kbps, (Оригинал)
Язык : English
Default : Нет
Forced : Нет
Текст
Идентификатор : 4
Формат : UTF-8
Идентификатор кодека : S_TEXT/UTF8
Идентификатор кодека/Информация : UTF-8 Plain Text
Язык : English
Default : Нет
Forced : Нет
Примечание: Рип в High 10 Profile, в настоящее время не поддерживается большинством аппаратных проигрывателей, поэтому предназначен исключительно для воспроизведения на ПК. Для корректного воспроизведения может потребоваться обновление ПО.Скриншоты:
[th]http://img.torrentsclub.org/di/MSJR/4fd1ddc19905.png[/th] [th]http://img.torrentsclub.org/di/4CEG/d1bc3b471504.png[/th] [th]http://img.torrentsclub.org/di/ABC1/ea0b88ea17da.png[/th]
Время раздачи: 24/7 (жду до 10-15 скачавших, а дальше могу уйти с радачи)

[Цитировать]



Показать сообщения:    

Текущее время: 10-Дек 08:07

Часовой пояс: UTC + 3


Вы не можете начинать темы
Вы не можете отвечать на сообщения
Вы не можете редактировать свои сообщения
Вы не можете удалять свои сообщения
Вы не можете голосовать в опросах
Вы не можете прикреплять файлы к сообщениям
Вы не можете скачивать файлы

!ВНИМАНИЕ!
Сайт не предоставляет электронные версии произведений, а занимается лишь коллекционированием и каталогизацией ссылок, присылаемых и публикуемых на форуме нашими читателями. Если вы являетесь правообладателем какого-либо представленного материала и не желаете, чтобы ссылка на него находилась в нашем каталоге, свяжитесь с нами, и мы незамедлительно удалим ее. Файлы для обмена на трекере предоставлены пользователями сайта, и администрация не несет ответственности за их содержание. Просьба не заливать файлы, защищенные авторскими правами, а также файлы нелегального содержания!