[ Сегодня идет свободное скачивание без начисления Download ]


Статистика раздачи
Нет
 
   
 
Top  
 
 
-Тайна рода / Bloodline (2013) DVDRip- Год выпуска: 2013
Производство: США
Жанр: Фэнтези, Триллер
Перевод: Многоголосый закадровый | Лицензия
Субтитры: Отсутствуют
Режиссер: Мэтт Томпсон
Актеры: Мэтт Томпсон, Кимберли Александр, Джесси Кристофферсон, Джина Компаретто, Крис Фронтьеро, Грейнджер Хайнс, Занн МаКларнон, Michael Reinero, Майкл Акоста, Джон Дуглас Айерс
Описание фильма:
Студенту семинарии было видение — он должен открыть тайну своей родословной, и тем самым открыть собственное предназначение и миссию для которой он живет. Понимая, что подобные видение могут быть только со стороны сил зла, он прекращает обучение в семинарии и беря с собой подругу, уходит на поиски.
Они привели его к заброшенному дому, в котором он обнаруживает истинное наследие предков — старинный медальон. Друзья его находятся в смертельной опасности и у него происходит внутренняя борьба, завязанная на искушениях: остаться ли собой или принять тот дар, которым наделила его родословная.-

-Рейтинг R - Детям до 17 лет обязательно присутствие родителей!-Дата мировой премьеры: 27 сентября 2013
Дата выхода DVD: 19 сентября 2013, «Флагман-Трейд»-Продолжительность: 01:32:17
Качество видео: DVDRip
Видеокодек: XviD
Битрейт видео: 1808 kbps
Размер кадра: 720x304
Аудио: AC3, 5.1, 48,0 КГц, 448 kbps | MVO [Лицензия] [Русский]

MediaInfo

Формат                                   : AVI
Формат/Информация                        : Audio Video Interleave
Размер файла                             : 1,46 Гбайт
Продолжительность                        : 1 ч. 32 м.
Общий поток                              : 2264 Кбит/сек
Программа кодирования                    : VirtualDubMod 1.5.10.3 | [url=http://www.virtualdub-fr.org]www.virtualdub-fr.org[/url] || (build 2550/release)
Библиотека кодирования                   : VirtualDubMod build 2550/release
Видео
Идентификатор                            : 0
Формат                                   : MPEG-4 Visual
Профиль формата                          : Advanced [email protected]
Параметр BVOP формата                    : 2
Параметр QPel формата                    : Нет
Параметр GMC формата                     : Без точки перехода
Параметр матрицы формата                 : Default (MPEG)
Идентификатор кодека                     : XVID
Идентификатор кодека/Подсказка           : XviD
Продолжительность                        : 1 ч. 32 м.
Битрейт                                  : 1808 Кбит/сек
Ширина                                   : 720 пикселей
Высота                                   : 304 пикселя
Соотношение сторон                       : 2,35:1
Частота кадров                           : 25,000 кадров/сек
Цветовое пространство                    : YUV
Субдискретизация насыщенности            : 4:2:0
Битовая глубина                          : 8 бит
Тип развёртки                            : Прогрессивная
Метод сжатия                             : С потерями
Бит/(Пиксели*Кадры)                      : 0.330
Размер потока                            : 1,17 Гбайт (80%)
Библиотека кодирования                   : XviD 1.2.1 (UTC 2008-12-04)
Аудио
Идентификатор                            : 1
Формат                                   : AC-3
Формат/Информация                        : Audio Coding 3
Расширение режима                        : CM (complete main)
Параметр Endianness формата              : Big
Идентификатор кодека                     : 2000
Продолжительность                        : 1 ч. 32 м.
Вид битрейта                             : Постоянный
Битрейт                                  : 448 Кбит/сек
Каналы                                   : 6 каналов
Расположение каналов                     : Front: L C R, Side: L R, LFE
Частота                                  : 48,0 КГц
Битовая глубина                          : 16 бит
Метод сжатия                             : С потерями
Размер потока                            : 295 Мбайт (20%)
Выравнивание                             : Разделение по промежуткам
Продолжительность промежутка             : 40  мс. (1,00 видеокадр)
Время предзагрузки промежутка            : 500  мс.
Скриншоты:
[th]http://img.torrentsclub.org/di/JPFC/lJul7Xg.jpg[/th] [th]http://img.torrentsclub.org/di/6FNB/NxvYh3d.jpg[/th] [th]http://img.torrentsclub.org/di/J5H3/wemVRyK.jpg[/th]
Время раздачи: 24/7

[Цитировать]

Топик был перенесен из форума Новинки кинопроката в форум Фэнтези
Henkok



Показать сообщения:    

Текущее время: 05-Дек 01:27

Часовой пояс: UTC + 3


Вы не можете начинать темы
Вы не можете отвечать на сообщения
Вы не можете редактировать свои сообщения
Вы не можете удалять свои сообщения
Вы не можете голосовать в опросах
Вы не можете прикреплять файлы к сообщениям
Вы не можете скачивать файлы

!ВНИМАНИЕ!
Сайт не предоставляет электронные версии произведений, а занимается лишь коллекционированием и каталогизацией ссылок, присылаемых и публикуемых на форуме нашими читателями. Если вы являетесь правообладателем какого-либо представленного материала и не желаете, чтобы ссылка на него находилась в нашем каталоге, свяжитесь с нами, и мы незамедлительно удалим ее. Файлы для обмена на трекере предоставлены пользователями сайта, и администрация не несет ответственности за их содержание. Просьба не заливать файлы, защищенные авторскими правами, а также файлы нелегального содержания!