[ Сегодня идет свободное скачивание без начисления Download ]


Статистика раздачи
Нет
 
   
 
Top  
 
 
-Собутыльники / Drinking Buddies (2013) BDRip [H.264]
«A comedy about knowing when to say when»- Год выпуска: 2013
Производство: США
Жанр: Драма, Мелодрама, Комедия
Перевод: Одноголосый закадровый | [VANO]
Субтитры: Вшитые Отключаемые
Язык субтитров: Английский
Режиссер: Джо Сванберг
Актеры: Оливия Уайлд, Джейк Джонсон, Анна Кендрик, Рон Ливингстон, Тай Уэст, Джейсон Судейкис, Майк Брюн, Фрэнк В. Росс, Майкл Гертнер, Кристин Дэвис
Описание фильма:
Люк и Кейт сотрудники чикагского пивоваренного завода, где они проводят свои дни, выпивая и флиртуя. Они идеально подходят друг другу, но вот только они оба уже состоят в отношениях…-

-Дата мировой премьеры: 13 марта 2013
Дата выхода DVD: 4 февраля 2014, «Columbia/Sony»-Продолжительность: 01:30:22
Качество видео: BDRip-AVC
Видеокодек: MPEG4-AVC/H.264
Битрейт видео: 2687 kbps
Размер кадра: 1024x436
Аудио: AC3, 5.1, 48,0 КГц, 384 kbps | VO [VANO] [Русский]
Аудио: AC3, 5.1, 48,0 КГц, 384 kbps | Original [Английский]
Дополнительно: *Сохранены оригинальные чаптеры как на Blu Ray

MediaInfo

Формат                                   : Matroska
Версия формата                           : Version 4 / Version 2
Размер файла                             : 2,18 Гбайт
Продолжительность                        : 1 ч. 30 м.
Общий поток                              : 3456 Кбит/сек
Название фильма                          : -=MediaClub - Odessit=-
Дата кодирования                         : UTC 2013-11-23 16:49:35
Программа кодирования                    : mkvmerge v6.2.0 ('Promised Land') built on Apr 28 2013 12:22:01
Библиотека кодирования                   : libebml v1.3.0 + libmatroska v1.4.0
Видео
Идентификатор                            : 1
Формат                                   : AVC
Формат/Информация                        : Advanced Video Codec
Профиль формата                          : [url=mailto:High@L4.1]High@L4.1[/url]
Параметр CABAC формата                   : Да
Параметр ReFrames формата                : 10 кадров
Идентификатор кодека                     : V_MPEG4/ISO/AVC
Битрейт                                  : 2687 Кбит/сек
Ширина                                   : 1024 пикселя
Высота                                   : 436 пикселей
Соотношение сторон                       : 2,35:1
Режим частоты кадров                     : Переменный
Частота кадров в оригинале               : 23,976 кадра/сек
Цветовое пространство                    : YUV
Субдискретизация насыщенности            : 4:2:0
Битовая глубина                          : 8 бит
Тип развёртки                            : Прогрессивная
Бит/(Пиксели*Кадры)                      : 0.251
Библиотека кодирования                   : x264 core 130 r2273 b3065e6
Настройки программы                      : cabac=1 / ref=10 / deblock=1:-3:-3 / analyse=0x3:0x133 / me=umh / subme=11 / psy=1 / psy_rd=1.00:0.20 / mixed_ref=1 / me_range=48 / chroma_me=1 / trellis=2 / 8x8dct=1 / cqm=0 / deadzone=21,11 / fast_pskip=0 / chroma_qp_offset=-3 / threads=6 / lookahead_threads=1 / sliced_threads=0 / nr=0 / decimate=0 / interlaced=0 / bluray_compat=0 / constrained_intra=0 / bframes=9 / b_pyramid=2 / b_adapt=2 / b_bias=0 / direct=3 / weightb=1 / open_gop=0 / weightp=2 / keyint=240 / keyint_min=23 / scenecut=40 / intra_refresh=0 / rc=2pass / mbtree=0 / bitrate=2687 / ratetol=1.0 / qcomp=0.60 / qpmin=0 / qpmax=69 / qpstep=4 / cplxblur=20.0 / qblur=0.5 / ip_ratio=1.40 / pb_ratio=1.30 / aq=1:1.00
Язык                                     : English
Default                                  : Да
Forced                                   : Нет
Аудио #1
Идентификатор                            : 2
Формат                                   : AC-3
Формат/Информация                        : Audio Coding 3
Расширение режима                        : CM (complete main)
Параметр Endianness формата              : Big
Идентификатор кодека                     : A_AC3
Продолжительность                        : 1 ч. 30 м.
Вид битрейта                             : Постоянный
Битрейт                                  : 384 Кбит/сек
Каналы                                   : 6 каналов
Расположение каналов                     : Front: L C R, Side: L R, LFE
Частота                                  : 48,0 КГц
Битовая глубина                          : 16 бит
Метод сжатия                             : С потерями
Размер потока                            : 248 Мбайт (11%)
Заголовок                                : Любительский одноголосый (VANO)
Язык                                     : Russian
Default                                  : Да
Forced                                   : Нет
Аудио #2
Идентификатор                            : 3
Формат                                   : AC-3
Формат/Информация                        : Audio Coding 3
Расширение режима                        : CM (complete main)
Параметр Endianness формата              : Big
Идентификатор кодека                     : A_AC3
Продолжительность                        : 1 ч. 30 м.
Вид битрейта                             : Постоянный
Битрейт                                  : 384 Кбит/сек
Каналы                                   : 6 каналов
Расположение каналов                     : Front: L C R, Side: L R, LFE
Частота                                  : 48,0 КГц
Битовая глубина                          : 16 бит
Метод сжатия                             : С потерями
Размер потока                            : 248 Мбайт (11%)
Язык                                     : English
Default                                  : Нет
Forced                                   : Нет
Текст
Идентификатор                            : 4
Формат                                   : UTF-8
Идентификатор кодека                     : S_TEXT/UTF8
Идентификатор кодека/Информация          : UTF-8 Plain Text
Язык                                     : English
Default                                  : Нет
Forced                                   : Нет
Меню
00:00:00.000                             : :Chapter 01
00:07:19.439                             : :Chapter 02
00:15:21.545                             : :Chapter 03
00:21:17.067                             : :Chapter 04
00:30:13.269                             : :Chapter 05
00:37:39.215                             : :Chapter 06
00:44:10.356                             : :Chapter 07
00:51:01.391                             : :Chapter 08
00:58:22.582                             : :Chapter 09
01:05:47.026                             : :Chapter 10
01:16:21.076                             : :Chapter 11
01:26:41.446                             : :Chapter 12
01:30:22.708                             : :Chapter 13
Скриншоты:
[th]http://img.torrentsclub.org/di/30V5/9cOmnZA.jpg[/th] [th]http://img.torrentsclub.org/di/XPAC/Ig9LMMI.jpg[/th] [th]http://img.torrentsclub.org/di/RKPT/ZpMagVG.jpg[/th]
-Время раздачи: 24/7-

[Цитировать]

Топик был перенесен из форума Новинки кинопроката в форум Драма
Henkok



Показать сообщения:    

Текущее время: 08-Дек 21:16

Часовой пояс: UTC + 3


Вы не можете начинать темы
Вы не можете отвечать на сообщения
Вы не можете редактировать свои сообщения
Вы не можете удалять свои сообщения
Вы не можете голосовать в опросах
Вы не можете прикреплять файлы к сообщениям
Вы не можете скачивать файлы

!ВНИМАНИЕ!
Сайт не предоставляет электронные версии произведений, а занимается лишь коллекционированием и каталогизацией ссылок, присылаемых и публикуемых на форуме нашими читателями. Если вы являетесь правообладателем какого-либо представленного материала и не желаете, чтобы ссылка на него находилась в нашем каталоге, свяжитесь с нами, и мы незамедлительно удалим ее. Файлы для обмена на трекере предоставлены пользователями сайта, и администрация не несет ответственности за их содержание. Просьба не заливать файлы, защищенные авторскими правами, а также файлы нелегального содержания!