[ Сегодня идет свободное скачивание без начисления Download ]


Статистика раздачи
Нет
 
   
 
Top  
 
 
-Тебе конец! / You're Next (2013) CamRip«Вы уверены, что закрыли дверь?»- Год выпуска: 2013
Производство: США
Жанр: Ужасы, Триллер, Комедия
Перевод: Одноголосый закадровый, любительский
Озвучка / Автор перевода: Хихикающий доктор
Субтитры: Отсутствуют
Дата мировой премьеры: 10 сентября 2011
Дата российской премьеры: 29 августа 2013, «Вольга»
Дата украинской премьеры: 5 сентября 2013, «Вольга Украина»
Режиссер: Адам Вингард
Продюсер: Саймон Баррет, Кит Калдер, Ким Шерман
Актеры: Шарни Винсон, Николас Туччи, Венди Гленн, Эй Джей Боуэн, Джо Сванберг, Барбара Крэмптон, Роб Моран, Маргарет Лэни, Эми Саймец, Тай Уэст
Описание фильма:
Банда маньяков в звериных масках, вооруженных топорами и арбалетами, вторгается в загородный дом семьи Дэвисон. Жертвы оказываются в западне… Неожиданно среди них находится один достойный противник, способный дать отпор убийцам.

Продолжительность: 01:31:00
Качество видео: CamRip
Видеокодек: Xvid
Битрейт видео: ~1467 Kbit/s
Размер кадра: 624 x 274
Аудиокодек: МР3, 2.0
Битрейт аудио: 192 Kbit/s

MediaInfo

Общее
Полное имя : D:\Торренты\Тебе конец!.2013.CamRip.avi
Формат : AVI
Формат/Информация : Audio Video Interleave
Размер файла : 1,07 Гбайт
Продолжительность : 1 ч. 31 м.
Общий поток : 1671 Кбит/сек
Программа кодирования : VirtualDubMod 1.5.10.3 (build 2550/release)
Библиотека кодирования : VirtualDubMod build 2550/release
Видео
Идентификатор : 0
Формат : MPEG-4 Visual
Профиль формата : Simple@L3
Параметр BVOP формата : Нет
Параметр QPel формата : Нет
Параметр GMC формата : Без точки перехода
Параметр матрицы формата : Default (H.263)
Идентификатор кодека : XVID
Идентификатор кодека/Подсказка : XviD
Продолжительность : 1 ч. 31 м.
Битрейт : 1467 Кбит/сек
Ширина : 624 пикс.
Высота : 274 пикс.
Соотношение сторон : 2,25:1
Частота кадров : 29,970 кадр/сек
Цветовое пространство : YUV
Подвыборка цветности : 4:2:0
Битовая глубина : 8 бит
Тип развёртки : Прогрессивная
Метод сжатия : С потерями
Бит/(Пиксели*Кадры) : 0.286
Размер потока : 961 Мбайт (88%)
Библиотека кодирования : XviD 64
Аудио
Идентификатор : 1
Формат : MPEG Audio
Версия формата : Version 1
Профиль формата : Layer 3
Идентификатор кодека : 55
Идентификатор кодека/Подсказка : MP3
Продолжительность : 1 ч. 31 м.
Вид битрейта : Постоянный
Битрейт : 192 Кбит/сек
Каналы : 2 канала
Частота : 44,1 КГц
Метод сжатия : С потерями
Размер потока : 126 Мбайт (11%)
Выравнивание : Разделение по промежуткам
Продолжительность промежутка : 33 мс. (1,00 видеокадр)
Время предзагрузки промежутка : 500 ms
Скриншоты:
Время раздачи: 24/7 по возможности

[Цитировать]

Топик был перенесен из форума Новинки кинопроката в форум Ужасы
Henkok



Показать сообщения:    

Текущее время: 09-Дек 12:43

Часовой пояс: UTC + 3


Вы не можете начинать темы
Вы не можете отвечать на сообщения
Вы не можете редактировать свои сообщения
Вы не можете удалять свои сообщения
Вы не можете голосовать в опросах
Вы не можете прикреплять файлы к сообщениям
Вы не можете скачивать файлы

!ВНИМАНИЕ!
Сайт не предоставляет электронные версии произведений, а занимается лишь коллекционированием и каталогизацией ссылок, присылаемых и публикуемых на форуме нашими читателями. Если вы являетесь правообладателем какого-либо представленного материала и не желаете, чтобы ссылка на него находилась в нашем каталоге, свяжитесь с нами, и мы незамедлительно удалим ее. Файлы для обмена на трекере предоставлены пользователями сайта, и администрация не несет ответственности за их содержание. Просьба не заливать файлы, защищенные авторскими правами, а также файлы нелегального содержания!