[ Сегодня идет свободное скачивание без начисления Download ]


Статистика раздачи
Нет
 
   
 
Top  
 
 
- День Доктора / The Day of the Doctor (2013) SATRip - Русское название: Доктор Кто: День Доктора
Оригинальное название: Doctor Who: The Day of the Doctor
Год выпуска: 2013
Жанр: Фантастика, приключения
Выпущено: Великобритания, British Broadcasting Corporation (BBC)
Описание:
Сериалу «Доктор Кто» исполняется 50 лет! Смотрите грандиозную премьеру на канале «Карусель»! 23 ноября — дата, знаковая для многих любителей научной фантастики, ведь в этот день празднует свое рождение культовый научно-фантастический сериал «Доктор Кто», официально признанный самым продолжительным в этой категории. Компания «BBC» планирует проводить масштабное празднование юбилея одного из самых популярных британских сериалов. Спецвыпуск будет показан 23 ноября в одно и то же время более чем в 75 странах мира. В Великобритании его будет транслировать телеканал «BBC One», российским же зрителям уникальную возможность просмотра «Дня Доктора» одновременно со всем миром подарит канал «Карусель». Известно, что героями спецвыпуска станут Десятый и Одиннадцатый Доктор со своими спутницами Розой Тайлер и Кларой Освальд. Также зрители увидят неизвестное воплощение Доктора. Режиссер: Ник Харран
Актеры: Мэтт Смит, Дженна Коулман, Билли Пайпер, Дэвид Теннант, Джон Хёрт, Джоанна Пейдж, Джемма Редгрейв, Ингрид Оливер, Николас Бриггс, Кен Боунс, Орландо Джеймс
Перевод: Профессиональный многоголосый
Продолжительность: 01:15:46
Видеокодек: XVID
Качество видео: SATRip
Битрейт видео: ~2100 kb/s
Размер кадра: 720 x 400
Аудиокодек: AC-3, 2.0ch.
Битрейт аудио: 192 kb/s

MediaInfo:

Формат : AVI
Формат/Информация : Audio Video Interleave
Размер файла : 1,22 Гбайт
Продолжительность : 1 ч. 15 м.
Общий поток : 2302 Кбит/сек
Название фильма : The Day of the Doctor
Режиссёр : SATRip by Thunder
Жанр : Adventure
Программа кодирования : VirtualDubMod 1.5.10.3 | www.virtualdub-fr.org || (build 2550/release)
Видео
Идентификатор : 0
Формат : MPEG-4 Visual
Профиль формата : Advanced Simple@L5
Параметр BVOP формата : 2
Параметр QPel формата : Нет
Параметр GMC формата : Без точки перехода
Параметр матрицы формата : Default (H.263)
Идентификатор кодека : XVID
Идентификатор кодека/Подсказка : XviD
Продолжительность : 1 ч. 15 м.
Битрейт : 2100 Кбит/сек
Ширина : 720 пикселей
Высота : 400 пикселей
Соотношение сторон : 16:9
Частота кадров : 25,000 кадров/сек
Цветовое пространство : YUV
Субдискретизация насыщенности : 4:2:0
Битовая глубина : 8 бит
Тип развёртки : Прогрессивная
Метод сжатия : С потерями
Бит/(Пиксели*Кадры) : 0.292
Размер потока : 1,11 Гбайт (91%)
Библиотека кодирования : XviD 1.2.1 (UTC 2008-12-04)
Аудио
Идентификатор : 1
Формат : AC-3
Формат/Информация : Audio Coding 3
Расширение режима : CM (complete main)
Идентификатор кодека : 2000
Продолжительность : 1 ч. 15 м.
Вид битрейта : Постоянный
Битрейт : 192 Кбит/сек
Каналы : 2 канала
Расположение каналов : Front: L R
Частота : 48,0 КГц
Битовая глубина : 16 бит
Метод сжатия : С потерями
Размер потока : 104 Мбайт (8%)
Выравнивание : Разделение по промежуткам
Продолжительность промежутка : 40 мс. (1,00 видеокадр)
Время предзагрузки промежутка : 500 мс.
Скриншоты:
[th]http://img.torrentsclub.org/di/TRU6/2p5u.jpg[/th] [th]http://img.torrentsclub.org/di/BK5U/uy5e.jpg[/th] [th]http://img.torrentsclub.org/di/AQIW/x55p.jpg[/th]
Время раздачи: 24/7. До первых 5 скачавших.

[Цитировать]

Топик был перенесен из форума Новинки кинопроката в форум Фантастика
Henkok



Показать сообщения:    

Текущее время: 26-Мар 15:03

Часовой пояс: UTC + 6


Вы не можете начинать темы
Вы не можете отвечать на сообщения
Вы не можете редактировать свои сообщения
Вы не можете удалять свои сообщения
Вы не можете голосовать в опросах
Вы не можете прикреплять файлы к сообщениям
Вы не можете скачивать файлы

!ВНИМАНИЕ!
Сайт не предоставляет электронные версии произведений, а занимается лишь коллекционированием и каталогизацией ссылок, присылаемых и публикуемых на форуме нашими читателями. Если вы являетесь правообладателем какого-либо представленного материала и не желаете, чтобы ссылка на него находилась в нашем каталоге, свяжитесь с нами, и мы незамедлительно удалим ее. Файлы для обмена на трекере предоставлены пользователями сайта, и администрация не несет ответственности за их содержание. Просьба не заливать файлы, защищенные авторскими правами, а также файлы нелегального содержания!