[ Сегодня идет свободное скачивание без начисления Download ]


Статистика раздачи
Нет
 
   
 
Top  
 
 
-В поисках радости / Finding Joy (2013) WEB-DLRip- Год выпуска: 2013
Производство: США, Kreate Films
Жанр: Драма, Комедия
Перевод: Многоголосый закадровый, профессиональный (НТВ+)
Субтитры: Отсутствуют
Дата мировой премьеры: 7 июня 2013
Режиссер: Карло Де Роза
Продюсер: Richard DiPatri, Шона Такман, Энди Шефтер
Актеры: Джош Кук, Лиэн Балабан, Бэрри Боствик, Лэйни Казан, Тайлер Банч, Кики Харрис, Кармен Лопес, Фредрик Бэм Скотт
Описание фильма:
Эгоцентричный писатель Кайл, погрязший в рутине, заново открывает себя и свою семью, осознав, что означает быть счастливым, когда он встречает Джой - энергичную молодую женщину, которая просит его написать для нее некролог... Продолжительность: 01:35:57
Качество видео: WEB-DLRip
Видеокодек: Xvid
Битрейт видео: ~1835 Kbit/s
Размер кадра: 720 x 400
Аудиокодек: MP3 2.0
Битрейт аудио: 192 Kbit/s

MediaInfo

Общее
Полное имя : D:\Торренты\ФИЛЬМЫ торента\В поисках радости.2013.WEBDLRip.avi
Формат : AVI
Формат/Информация : Audio Video Interleave
Размер файла : 1,36 Гбайт
Продолжительность : 1 ч. 35 м.
Общий поток : 2036 Кбит/сек
Программа кодирования : VirtualDubMod 1.5.10.3 (build 2550/release)
Библиотека кодирования : VirtualDubMod build 2550/release
Видео
Идентификатор : 0
Формат : MPEG-4 Visual
Профиль формата : Advanced Simple@L5
Параметр BVOP формата : 2
Параметр QPel формата : Нет
Параметр GMC формата : Без точки перехода
Параметр матрицы формата : Выборочная
Режим смешивания : Сжатый битовый поток
Идентификатор кодека : XVID
Идентификатор кодека/Подсказка : XviD
Продолжительность : 1 ч. 35 м.
Битрейт : 1835 Кбит/сек
Ширина : 720 пикс.
Высота : 400 пикс.
Соотношение сторон : 16:9
Частота кадров : 23,976 кадр/сек
Цветовое пространство : YUV
Подвыборка цветности : 4:2:0
Битовая глубина : 8 бит
Тип развёртки : Прогрессивная
Метод сжатия : С потерями
Бит/(Пиксели*Кадры) : 0.266
Размер потока : 1,23 Гбайт (90%)
Библиотека кодирования : XviD 64
Аудио
Идентификатор : 1
Формат : MPEG Audio
Версия формата : Version 1
Профиль формата : Layer 3
Режим : Joint stereo
Идентификатор кодека : 55
Идентификатор кодека/Подсказка : MP3
Продолжительность : 1 ч. 35 м.
Вид битрейта : Постоянный
Битрейт : 192 Кбит/сек
Каналы : 2 канала
Частота : 48,0 КГц
Метод сжатия : С потерями
Размер потока : 132 Мбайт (9%)
Выравнивание : Соединение по промежуткам
Продолжительность промежутка : 42 мс. (1,00 видеокадр)
Время предзагрузки промежутка : 504 ms
Скриншоты:
[th]http://img.torrentsclub.org/di/340J/1e028d8127e1751...16da72e.jpg[/th] [th]http://img.torrentsclub.org/di/PT7S/3c962fea1e08dc4...ec59abd.jpg[/th] [th]http://img.torrentsclub.org/di/6UBK/c097a48a2ca34d3...dbbcaee.jpg[/th]
Время раздачи: 24/7 по возможности

[Цитировать]

Топик был перенесен из форума Новинки кинопроката в форум Драма
Henkok



Показать сообщения:    

Текущее время: 11-Дек 01:25

Часовой пояс: UTC + 3


Вы не можете начинать темы
Вы не можете отвечать на сообщения
Вы не можете редактировать свои сообщения
Вы не можете удалять свои сообщения
Вы не можете голосовать в опросах
Вы не можете прикреплять файлы к сообщениям
Вы не можете скачивать файлы

!ВНИМАНИЕ!
Сайт не предоставляет электронные версии произведений, а занимается лишь коллекционированием и каталогизацией ссылок, присылаемых и публикуемых на форуме нашими читателями. Если вы являетесь правообладателем какого-либо представленного материала и не желаете, чтобы ссылка на него находилась в нашем каталоге, свяжитесь с нами, и мы незамедлительно удалим ее. Файлы для обмена на трекере предоставлены пользователями сайта, и администрация не несет ответственности за их содержание. Просьба не заливать файлы, защищенные авторскими правами, а также файлы нелегального содержания!