[ Сегодня идет свободное скачивание без начисления Download ]


Статистика раздачи
Нет
 
   
 
 
 
Волчьи дети Амэ и Юки / Ookami Kodomo no Ame to Yuki Страна: Япония
Год выпуска: 2012 г.
Жанр: драма
Продолжительность: 01:57:03
Режиссер: Хосода Мамору
Студия:
-Перевод:
  • русские субтитры от Semyon44 & Mirron
-Озвучка:
  • одноголосая (жен.) от NASTR (AnimeReactor)
  • двухголосая (жен., муж.) от Milirina & Sad_Kit (Anything Group)
  • многоголосая от Renegade team
    (Breeze, Azart, ZoHaN, LaSIK, Molibden & Hyver)
-Описание: Юки и Амэ — только с виду обычные дети, которым должны быть нипочем тяготы окружающего мира. Когда погибает их отец, последний представитель древнего рода оборотней, их матери — обыкновенной девушке, когда-то влюбившейся в человека, оказавшегося волком — приходится переехать подальше от большого города и начать все сначала.-Качество: BDRip
Рип: Zorori-Project
Тип релиза: Без хардсаба
Формат видео: MKV
Видео: x264 [8bit], ~3 000 Kbps, 1280x720, 23.976 fps
Аудио RUS#1: AAC, 192 Kbps, 48000 Hz, 2ch - NASTR
Аудио RUS#2: AC3, 192 Kbps, 48000 Hz, 2ch - Milirina & Sad_Kit
Аудио RUS#3: AC3, 448 Kbps, 48000 Hz, 6ch - Renegade team
Аудио JAP: AC3, 640 Kbps, 48000 Hz, 6ch
-

Подробные тех. данные

Формат : Matroska
Версия формата : Version 2
Размер файла : 3,61 Гбайт
Продолжительность : 1 ч. 57 м.
Общий поток : 4420 Кбит/сек
Дата кодирования : UTC 2013-04-12 11:22:40
Программа кодирования : mkvmerge v5.8.0 ('No Sleep / Pillow') built on Sep 2 2012 15:37:04
Библиотека кодирования : libebml v1.2.3 + libmatroska v1.3.0
Attachment : Yes / Yes / Yes / Yes / Yes
Видео
Идентификатор : 1
Формат : AVC
Формат/Информация : Advanced Video Codec
Профиль формата : High@L4.0
Параметр CABAC формата : Да
Параметр ReFrames формата : 6 кадров
Идентификатор кодека : V_MPEG4/ISO/AVC
Продолжительность : 1 ч. 57 м.
Номинальный битрейт : 3000 Кбит/сек
Ширина : 1280 пикселей
Высота : 720 пикселей
Соотношение сторон : 16:9
Режим частоты кадров : Постоянный
Частота кадров : 23,976 кадра/сек
Цветовое пространство : YUV
Субдискретизация насыщенности : 4:2:0
Битовая глубина : 8 бит
Тип развёртки : Прогрессивная
Бит/(Пиксели*Кадры) : 0.136
Заголовок : Japanese Video Track
Библиотека кодирования : x264 core 125 r2200bm 999b753
Настройки программы : cabac=1 / ref=6 / deblock=1:1:1 / analyse=0x3:0x113 / me=hex / subme=7 / psy=1 / psy_rd=0.40:0.00 / mixed_ref=1 / me_range=16 / chroma_me=1 / trellis=1 / 8x8dct=1 / cqm=0 / deadzone=21,11 / fast_pskip=1 / chroma_qp_offset=-2 / threads=12 / lookahead_threads=2 / sliced_threads=0 / nr=0 / decimate=1 / interlaced=0 / bluray_compat=0 / constrained_intra=0 / bframes=5 / b_pyramid=2 / b_adapt=1 / b_bias=0 / direct=1 / weightb=1 / open_gop=0 / weightp=2 / keyint=250 / keyint_min=23 / scenecut=40 / intra_refresh=0 / rc_lookahead=40 / rc=2pass / mbtree=1 / bitrate=3000 / ratetol=1.0 / qcomp=0.60 / qpmin=0 / qpmax=69 / qpstep=4 / cplxblur=20.0 / qblur=0.5 / ip_ratio=1.40 / aq=1:0.60
Язык : Japanese
Default : Да
Forced : Нет
Аудио #1
Идентификатор : 2
Формат : AAC
Формат/Информация : Advanced Audio Codec
Профиль формата : LC
Идентификатор кодека : A_AAC
Продолжительность : 1 ч. 57 м.
Каналы : 2 канала
Расположение каналов : Front: L R
Частота : 48,0 КГц
Метод сжатия : С потерями
Заголовок : NASTR
Язык : Russian
Default : Да
Forced : Нет
Аудио #2
Идентификатор : 3
Формат : AC-3
Формат/Информация : Audio Coding 3
Расширение режима : CM (complete main)
Параметр Endianness формата : Big
Идентификатор кодека : A_AC3
Продолжительность : 1 ч. 57 м.
Вид битрейта : Постоянный
Битрейт : 192 Кбит/сек
Каналы : 2 канала
Расположение каналов : Front: L R
Частота : 48,0 КГц
Битовая глубина : 16 бит
Метод сжатия : С потерями
Размер потока : 161 Мбайт (4%)
Заголовок : [Anything Group]
Язык : Russian
Default : Нет
Forced : Нет
Аудио #3
Идентификатор : 4
Формат : AC-3
Формат/Информация : Audio Coding 3
Расширение режима : CM (complete main)
Параметр Endianness формата : Big
Идентификатор кодека : A_AC3
Продолжительность : 1 ч. 57 м.
Вид битрейта : Постоянный
Битрейт : 448 Кбит/сек
Каналы : 6 каналов
Расположение каналов : Front: L C R, Side: L R, LFE
Частота : 48,0 КГц
Битовая глубина : 16 бит
Метод сжатия : С потерями
Размер потока : 375 Мбайт (10%)
Заголовок : Renegade
Язык : Russian
Default : Нет
Forced : Нет
Аудио #4
Идентификатор : 5
Формат : AC-3
Формат/Информация : Audio Coding 3
Расширение режима : CM (complete main)
Параметр Endianness формата : Big
Идентификатор кодека : A_AC3
Продолжительность : 1 ч. 57 м.
Вид битрейта : Постоянный
Битрейт : 640 Кбит/сек
Каналы : 6 каналов
Расположение каналов : Front: L C R, Side: L R, LFE
Частота : 48,0 КГц
Битовая глубина : 16 бит
Метод сжатия : С потерями
Размер потока : 536 Мбайт (14%)
Заголовок : Japanese
Язык : Japanese
Default : Нет
Forced : Нет
-

[Цитировать]



Показать сообщения:    

Текущее время: 20-Фев 13:55

Часовой пояс: UTC + 3


Вы не можете начинать темы
Вы не можете отвечать на сообщения
Вы не можете редактировать свои сообщения
Вы не можете удалять свои сообщения
Вы не можете голосовать в опросах
Вы не можете прикреплять файлы к сообщениям
Вы не можете скачивать файлы

!ВНИМАНИЕ!
Сайт не предоставляет электронные версии произведений, а занимается лишь коллекционированием и каталогизацией ссылок, присылаемых и публикуемых на форуме нашими читателями. Если вы являетесь правообладателем какого-либо представленного материала и не желаете, чтобы ссылка на него находилась в нашем каталоге, свяжитесь с нами, и мы незамедлительно удалим ее. Файлы для обмена на трекере предоставлены пользователями сайта, и администрация не несет ответственности за их содержание. Просьба не заливать файлы, защищенные авторскими правами, а также файлы нелегального содержания!