[ Сегодня идет свободное скачивание без начисления Download ]


Статистика раздачи
Нет
 
   
 
 
 
- Год выпуска: 2007
Страна: Япония
Жанр: приключения, фантастика, меха, драма
Продолжительность: 27 эп. по 24 мин.-Перевод:
  • русские субтитры от Reanimedia (полные/вспомогательные)
    (стилизованные: тайминг, оформление: Aglenn)
-Озвучка:
  • русский дубляж от Reanimedia
-Режиссер: Имайси Хироюки
Студия: GAINAX-Описание:
Сотни лет люди живут в глубоких пещерах, в постоянном страхе перед землетрясениями и обвалами. В одной из таких подземных деревень живет мальчик Симон и его «духовный наставник» — молодой парень Камина. Камина верит, что наверху есть другой мир, без стен и потолков; его мечта — попасть туда. Но его мечты остаются пустыми фантазиями, пока в один прекрасный день Симон случайно не находит дрель... вернее, ключ от странного железного лица в толще земли. В этот же день происходит землетрясение, и потолок пещеры рушится — так начинается поистине эпическое приключение Симона, Камины и их компаньонов в новом для них мире: мире под открытым небом огромной Вселенной.
© World Art-Информационные ссылки: AniDB || World Art || MAL-Качество: BDRip
Энкод: Winter - RG Pantheon
Тип видео: без хардсаба
Формат: mkv
Видео: x264 (Hi10p), 1280x720, ~4500 Kbps, 23.976 fps
Аудио JAP: Vorbis, 48000Hz, ~256 Kbps, 2ch
Аудио RUS: AC3, 48000Hz, ~448 Kbps, 5.1ch (внешними файлами)
-

Список эпизодов

01. Pierce the Heavens with Your Drill!
02. I Said I`d Ride It
03. You Two-Faced Son of a Bitch!
04. Does Having So Many Faces Make You Great?
05. I Don`t Understand It At All!
06. All of You Bastards Put Us In Hot Water!
07. You`ll Be the One To Do That!
08. Farewell Comrades!
09. Just What Exactly Is a Human?
10. Who Really Was Your Big Brother?
11. Simon, Please Remove Your Hand
12. Youko-san, I Have Something to Ask of You
13. Everybody, Eat to Your Heart`s Content
14. How Are You, Everyone?
15. I`ll Head Towards Tomorrow
16. Summary Episode
17. You Understand Nothing
18. I`ll Make You Tell the Truth of the World
19. We Must Survive. No Matter What It Takes!
20. Oh God, To How Far Will You Test Us?
21. You Must Survive
22. And to Space
23. Let`s Go, The Final Battle
24. We Will Never Forget, This Minute and Second
25. I Accept Your Dying Wish!
26. Let`s Go, Comrades!
27. All the Lights in the Sky are Stars

Подробные тех. данные

Общее
Уникальный идентификатор : 216361546621993507258118578359743000896 (0xA2C5B7D85F350B88A4538C05352FB140)
Полное имя : Z:\Anime\720p\Tengen Toppa Gurren-Lagann [BD] [720p]\[Winter] Tengen Toppa Gurren Lagann 01 [BDrip 1280x720 x264 Vorbis].mkv
Формат : Matroska
Версия формата : Version 2
Размер файла : 906 Мбайт
Продолжительность : 25 м.
Режим общего битрейта : Переменный
Общий поток : 4898 Кбит/сек
Дата кодирования : UTC 2013-07-16 16:06:48
Программа кодирования : mkvmerge v2.9.8 ('C'est le bon') built on Aug 13 2009 12:49:06
Библиотека кодирования : libebml v0.7.7 + libmatroska v0.8.1
Видео
Идентификатор : 1
Формат : AVC
Формат/Информация : Advanced Video Codec
Профиль формата : High 10@L4.1
Параметр CABAC формата : Да
Параметр ReFrames формата : 9 кадров
Идентификатор кодека : V_MPEG4/ISO/AVC
Продолжительность : 25 м.
Битрейт : 4544 Кбит/сек
Ширина : 1280 пикселей
Высота : 720 пикселей
Соотношение сторон : 16:9
Режим частоты кадров : Постоянный
Частота кадров : 23,976 кадра/сек
Цветовое пространство : YUV
Субдискретизация насыщенности : 4:2:0
Битовая глубина : 10 бит
Тип развёртки : Прогрессивная
Бит/(Пиксели*Кадры) : 0.206
Размер потока : 841 Мбайт (93%)
Библиотека кодирования : x264 core 132 r2309 3b1f1f7
Настройки программы : cabac=1 / ref=9 / deblock=1:-2:-2 / analyse=0x3:0x133 / me=umh / subme=9 / psy=1 / psy_rd=0.90:0.00 / mixed_ref=1 / me_range=24 / chroma_me=1 / trellis=2 / 8x8dct=1 / cqm=0 / deadzone=21,11 / fast_pskip=1 / chroma_qp_offset=-2 / threads=6 / lookahead_threads=1 / sliced_threads=0 / nr=0 / decimate=0 / interlaced=0 / bluray_compat=0 / constrained_intra=0 / bframes=8 / b_pyramid=2 / b_adapt=2 / b_bias=0 / direct=1 / weightb=1 / open_gop=0 / weightp=2 / keyint=250 / keyint_min=23 / scenecut=40 / intra_refresh=0 / rc=crf / mbtree=0 / crf=16.1 / qcomp=0.70 / qpmin=9 / qpmax=40 / qpstep=4 / ip_ratio=1.40 / pb_ratio=1.30 / aq=1:0.90
Default : Нет
Forced : Нет
Аудио
Идентификатор : 2
Формат : Vorbis
Параметр Floor формата : 1
Идентификатор кодека : A_VORBIS
Продолжительность : 25 м.
Вид битрейта : Переменный
Битрейт : 256 Кбит/сек
Каналы : 2 канала
Частота : 48,0 КГц
Метод сжатия : С потерями
Размер потока : 47,3 Мбайт (5%)
Библиотека кодирования : libVorbis (Schaufenugget) (20101101 (Schaufenugget))
Язык : Japanese
Default : Да
Forced : Нет

[Цитировать]



Показать сообщения:    

Текущее время: 08-Дек 03:10

Часовой пояс: UTC + 3


Вы не можете начинать темы
Вы не можете отвечать на сообщения
Вы не можете редактировать свои сообщения
Вы не можете удалять свои сообщения
Вы не можете голосовать в опросах
Вы не можете прикреплять файлы к сообщениям
Вы не можете скачивать файлы

!ВНИМАНИЕ!
Сайт не предоставляет электронные версии произведений, а занимается лишь коллекционированием и каталогизацией ссылок, присылаемых и публикуемых на форуме нашими читателями. Если вы являетесь правообладателем какого-либо представленного материала и не желаете, чтобы ссылка на него находилась в нашем каталоге, свяжитесь с нами, и мы незамедлительно удалим ее. Файлы для обмена на трекере предоставлены пользователями сайта, и администрация не несет ответственности за их содержание. Просьба не заливать файлы, защищенные авторскими правами, а также файлы нелегального содержания!