[ Сегодня идет свободное скачивание без начисления Download ]


Статистика раздачи
Нет
 
   
 
Top  
 
 
-Королевская шлюха / La putain du roi (1990) DVDRip- Год выпуска: 1990
Производство: Великобритания, Австрия, Франция, Италия
Жанр: Драма, Мелодрама, Приключения, История
Описание фильма:
Экранизация романа Жака Турнье "Жанна де Люнэ, графиня де Веруа".
XVII век, Италия. Придворный короля Витторио Амедео граф Алессандро Веруа привозит из Франции юную и любимую красавицу-жену Жанну. Молодая пара очень счастлива до тех пор, пока Жанну не представили королю, который страстно влюбляется в нее…-

-Режиссер: Аксель Корти
Актеры: Тимоти Далтон, Валерия Голино, Стефан Фрейсс, Робен Ренуччи, Маргарет Тайзэк, Элинор Дэвид, Поль Кроше, Эми Верба, Франко Валобра, Франческа Реджани
Продолжительность: 02:06:49
Качество видео: DVDRip
Перевод: Двуголосый закадровый, профессиональный
Дата мировой премьеры: 14 ноября 1990
Видеокодек: Xvid
Битрейт видео: ~2000 kb/s
Размер кадра: 704x416
Аудио 1: АС3 2.0, 192 kb/s, Русский
Аудио 2: АС3 2.0, 192 kb/s, Французский

MediaInfo:

Общее
Полное имя : C:Торренты\Королевская шлюха [Полная версия].1990.DVDRip.avi
Формат : AVI
Формат/Информация : Audio Video Interleave
Профиль формата : OpenDML
Размер файла : 2,13 Гбайт
Продолжительность : 2 ч. 6 м.
Общий поток : 2402 Кбит/сек
Программа кодирования : VirtualDubModRus 1.5.10.2 (build 2542/release)
Библиотека кодирования : VirtualDubMod build 2542/release
Видео
Идентификатор : 0
Формат : MPEG-4 Visual
Профиль формата : Advanced [email protected]
Параметр BVOP формата : 2
Параметр QPel формата : Нет
Параметр GMC формата : Без точки перехода
Параметр матрицы формата : Default (MPEG)
Режим смешивания : Сжатый битовый поток
Идентификатор кодека : XVID
Идентификатор кодека/Подсказка : XviD
Продолжительность : 2 ч. 6 м.
Битрейт : 2000 Кбит/сек
Ширина : 704 пикселя
Высота : 416 пикселей
Соотношение сторон : 1,692
Частота кадров : 25,000 кадров/сек
Цветовое пространство : YUV
Субдискретизация насыщенности : 4:2:0
Битовая глубина : 8 бит
Тип развёртки : Прогрессивная
Метод сжатия : С потерями
Бит/(Пиксели*Кадры) : 0.273
Размер потока : 1,77 Гбайт (83%)
Библиотека кодирования : XviD 1.2.0.dev47 (UTC 2006-11-01)
Аудио #1
Идентификатор : 1
Формат : AC-3
Формат/Информация : Audio Coding 3
Расширение режима : CM (complete main)
Параметр Endianness формата : Big
Идентификатор кодека : 2000
Продолжительность : 2 ч. 6 м.
Вид битрейта : Постоянный
Битрейт : 192 Кбит/сек
Каналы : 2 канала
Расположение каналов : Front: L R
Частота : 48,0 КГц
Битовая глубина : 16 бит
Метод сжатия : С потерями
Размер потока : 174 Мбайт (8%)
Выравнивание : Разделение по промежуткам
Продолжительность промежутка : 40 мс. (1,00 видеокадр)
Время предзагрузки промежутка : 500 мс.
Аудио #2
Идентификатор : 2
Формат : AC-3
Формат/Информация : Audio Coding 3
Расширение режима : CM (complete main)
Параметр Endianness формата : Big
Идентификатор кодека : 2000
Продолжительность : 2 ч. 6 м.
Вид битрейта : Постоянный
Битрейт : 192 Кбит/сек
Каналы : 2 канала
Расположение каналов : Front: L R
Частота : 48,0 КГц
Битовая глубина : 16 бит
Метод сжатия : С потерями
Размер потока : 174 Мбайт (8%)
Выравнивание : Разделение по промежуткам
Продолжительность промежутка : 40 мс. (1,00 видеокадр)
Время предзагрузки промежутка : 500 мс.
Скриншоты:
[th]http://img.torrentsclub.org/di/MR6I/m0nUGJv.jpg[/th] [th]http://img.torrentsclub.org/di/69BC/rLEMJgZ.jpg[/th] [th]http://img.torrentsclub.org/di/EDD7/wvbOO4s.jpg[/th]
Время раздачи: с 10.00 до 22.00

[Цитировать]



Показать сообщения:    

Текущее время: 06-Дек 19:07

Часовой пояс: UTC + 3


Вы не можете начинать темы
Вы не можете отвечать на сообщения
Вы не можете редактировать свои сообщения
Вы не можете удалять свои сообщения
Вы не можете голосовать в опросах
Вы не можете прикреплять файлы к сообщениям
Вы не можете скачивать файлы

!ВНИМАНИЕ!
Сайт не предоставляет электронные версии произведений, а занимается лишь коллекционированием и каталогизацией ссылок, присылаемых и публикуемых на форуме нашими читателями. Если вы являетесь правообладателем какого-либо представленного материала и не желаете, чтобы ссылка на него находилась в нашем каталоге, свяжитесь с нами, и мы незамедлительно удалим ее. Файлы для обмена на трекере предоставлены пользователями сайта, и администрация не несет ответственности за их содержание. Просьба не заливать файлы, защищенные авторскими правами, а также файлы нелегального содержания!